Вы используете незарегистрированную версию компонента "Вкладки"!

Поиск

(Free Improvisation) Marilyn Crispell & Georg Graewe - Piano Duets - 1992, FLAC (tracks+.cue), lossless

Треклист:
Marilyn Crispell & Georg Graewe - Piano Duets
Жанр: Free Improvisation
Год выпуска диска: 1992
Производитель диска: Leo Records (CD LR 206/207)
Источник: вот.сиди (weareborg)
Аудио кодек: FLAC
Тип рипа: tracks+.cue
Битрейт аудио: lossless
Продолжительность: 1:54:10
Трэклист:
Disc 1 (Tuned Pianos)
1.1 Roode 16:53
1.2 Raves D'Assadour 11:32
1.3 Twin Dragons 7:12
1.4 Squars, Domes & Cones 9:04
1.5 Fervent Void 11:50
Disc 2 (Detuned Pianos)
2.1 If She Be A Wall 7:27
2.2 Grey Chair & Parrots 5:56
2.3 Denis D'Or 7:49
2.4 Untitled Swirl 9:07
2.5 Interior A 7:08
2.6 Fringe 4:10
2.7 Stairway To Nowhere 8:35
2.8 Interior 6:10

Disc 1 was recorded live at "Ruhr Jazz Festival Bochum", October 1991.
Disc 2 was recorded at IBACH Piano Factory on two pianos with a special "diagonal tuning".
Georg Graewe, Marilyn Crispell - piano
 
Отчёт EAC
 
I
Exact Audio Copy V0.99 prebeta 5 from 4. May 2009
EAC extraction logfile from 1. September 2009, 19:54
Marilyn Crispell & Georg Graewe / Piano Duets Disc 1
Used drive : TSSTcorpCDDVDW TS-L633A Adapter: 0 ID: 1
Read mode : Secure
Utilize accurate stream : Yes
Defeat audio cache : Yes
Make use of C2 pointers : No
Read offset correction : 6
Overread into Lead-In and Lead-Out : No
Fill up missing offset samples with silence : Yes
Delete leading and trailing silent blocks : No
Null samples used in CRC calculations : Yes
Used interface : Installed external ASPI interface
Gap handling : Appended to previous track
Used output format : User Defined Encoder
Selected bitrate : 128 kBit/s
Quality : High
Add ID3 tag : No
Command line compressor : C:\Program Files\Exact Audio Copy\Flac\flac.exe
Additional command line options : -8 -V -T "ARTIST=%a" -T "TITLE=%t" -T "ALBUM=%g" -T "DATE=%y" -T "TRACKNUMBER=%n" -T "GENRE=%m" -T "COMMENT=EAC FLAC -8" %s
TOC of the extracted CD
Track | Start | Length | Start sector | End sector
---------------------------------------------------------
1 | 0:00.33 | 16:58.12 | 33 | 76394
2 | 16:58.45 | 11:39.13 | 76395 | 128832
3 | 28:37.58 | 7:19.62 | 128833 | 161819
4 | 35:57.45 | 9:10.00 | 161820 | 203069
5 | 45:07.45 | 11:50.55 | 203070 | 256374
Track 1
Filename C:\RIPS\Marilyn Crispel & Georg Graewe - Piano Duets (2CD) - 1991\01 - Roode Lion.wav
Pre-gap length 0:00:02.44
Peak level 98.9 %
Track quality 100.0 %
Test CRC D60754D6
Copy CRC D60754D6
Accurately ripped (confidence 3) [229233FE]
Copy OK
Track 2
Filename C:\RIPS\Marilyn Crispel & Georg Graewe - Piano Duets (2CD) - 1991\02 - Reves d'Assadour.wav
Pre-gap length 0:00:04.60
Peak level 93.3 %
Track quality 100.0 %
Test CRC 4275ECB4
Copy CRC 4275ECB4
Accurately ripped (confidence 3) [CD954937]
Copy OK
Track 3
Filename C:\RIPS\Marilyn Crispel & Georg Graewe - Piano Duets (2CD) - 1991\03 - Twin Dragons.wav
Pre-gap length 0:00:06.73
Peak level 85.2 %
Track quality 100.0 %
Test CRC 0EA8E94C
Copy CRC 0EA8E94C
Accurately ripped (confidence 3) [C72A4893]
Copy OK
Track 4
Filename C:\RIPS\Marilyn Crispel & Georg Graewe - Piano Duets (2CD) - 1991\04 - Squares, Domes & Cones.wav
Pre-gap length 0:00:06.56
Peak level 90.9 %
Track quality 100.0 %
Test CRC D43579E5
Copy CRC D43579E5
Accurately ripped (confidence 3) [0D868AC0]
Copy OK
Track 5
Filename C:\RIPS\Marilyn Crispel & Georg Graewe - Piano Duets (2CD) - 1991\05 - Fervent Void.wav
Pre-gap length 0:00:06.29
Peak level 90.1 %
Track quality 100.0 %
Test CRC 164FE462
Copy CRC 164FE462
Accurately ripped (confidence 3) [01AF02DF]
Copy OK
All tracks accurately ripped
No errors occurred
End of status report
 
II
Exact Audio Copy V0.99 prebeta 5 from 4. May 2009
EAC extraction logfile from 1. September 2009, 20:34
Marilyn Crispell & Georg Graewe / Piano Duets Disc 2
Used drive : TSSTcorpCDDVDW TS-L633A Adapter: 0 ID: 1
Read mode : Secure
Utilize accurate stream : Yes
Defeat audio cache : Yes
Make use of C2 pointers : No
Read offset correction : 6
Overread into Lead-In and Lead-Out : No
Fill up missing offset samples with silence : Yes
Delete leading and trailing silent blocks : No
Null samples used in CRC calculations : Yes
Used interface : Installed external ASPI interface
Gap handling : Appended to previous track
Used output format : User Defined Encoder
Selected bitrate : 128 kBit/s
Quality : High
Add ID3 tag : No
Command line compressor : C:\Program Files\Exact Audio Copy\Flac\flac.exe
Additional command line options : -8 -V -T "ARTIST=%a" -T "TITLE=%t" -T "ALBUM=%g" -T "DATE=%y" -T "TRACKNUMBER=%n" -T "GENRE=%m" -T "COMMENT=EAC FLAC -8" %s
TOC of the extracted CD
Track | Start | Length | Start sector | End sector
---------------------------------------------------------
1 | 0:00.33 | 7:34.42 | 33 | 34124
2 | 7:35.00 | 6:03.08 | 34125 | 61357
3 | 13:38.08 | 7:55.35 | 61358 | 97017
4 | 21:33.43 | 9:14.22 | 97018 | 138589
5 | 30:47.65 | 7:13.70 | 138590 | 171134
6 | 38:01.60 | 4:17.50 | 171135 | 190459
7 | 42:19.35 | 8:42.18 | 190460 | 229627
8 | 51:01.53 | 6:10.50 | 229628 | 257427
Track 1
Filename C:\RIPS\Marilyn Crispel & Georg Graewe - Piano Duets (2CD) - 1991\Disc 2\01 - If She Be a Wall.wav
Pre-gap length 0:00:02.44
Peak level 80.6 %
Track quality 99.9 %
Test CRC 5DD8EC3D
Copy CRC 5DD8EC3D
Accurately ripped (confidence 3) [CBAAD1D2]
Copy OK
Track 2
Filename C:\RIPS\Marilyn Crispel & Georg Graewe - Piano Duets (2CD) - 1991\Disc 2\02 - Grey Chair & Parrots.wav
Pre-gap length 0:00:05.82
Peak level 45.0 %
Track quality 100.0 %
Test CRC 5E3B30A5
Copy CRC 5E3B30A5
Accurately ripped (confidence 3) [8D133652]
Copy OK
Track 3
Filename C:\RIPS\Marilyn Crispel & Georg Graewe - Piano Duets (2CD) - 1991\Disc 2\03 - Denis d'Or.wav
Pre-gap length 0:00:06.10
Peak level 83.5 %
Track quality 100.0 %
Test CRC 06D89EE6
Copy CRC 06D89EE6
Accurately ripped (confidence 3) [44CD55A9]
Copy OK
Track 4
Filename C:\RIPS\Marilyn Crispel & Georg Graewe - Piano Duets (2CD) - 1991\Disc 2\04 - Untitled Swirl.wav
Pre-gap length 0:00:07.04
Peak level 84.1 %
Track quality 100.0 %
Test CRC 24181F2B
Copy CRC 24181F2B
Accurately ripped (confidence 3) [B2B2CC81]
Copy OK
Track 5
Filename C:\RIPS\Marilyn Crispel & Georg Graewe - Piano Duets (2CD) - 1991\Disc 2\05 - Interior A.wav
Pre-gap length 0:00:06.40
Peak level 73.5 %
Track quality 100.0 %
Test CRC B799236C
Copy CRC B799236C
Accurately ripped (confidence 3) [7C7A2728]
Copy OK
Track 6
Filename C:\RIPS\Marilyn Crispel & Georg Graewe - Piano Duets (2CD) - 1991\Disc 2\06 - Fringe.wav
Pre-gap length 0:00:05.60
Peak level 54.8 %
Track quality 99.9 %
Test CRC 7991B6DF
Copy CRC 7991B6DF
Accurately ripped (confidence 3) [1D277A9D]
Copy OK
Track 7
Filename C:\RIPS\Marilyn Crispel & Georg Graewe - Piano Duets (2CD) - 1991\Disc 2\07 - Stairway to Nowhere.wav
Pre-gap length 0:00:07.29
Peak level 82.9 %
Track quality 100.0 %
Test CRC A456F1E2
Copy CRC A456F1E2
Accurately ripped (confidence 3) [1B53ECCE]
Copy OK
Track 8
Filename C:\RIPS\Marilyn Crispel & Georg Graewe - Piano Duets (2CD) - 1991\Disc 2\08 - Interior B.wav
Pre-gap length 0:00:06.50
Peak level 83.9 %
Track quality 100.0 %
Test CRC 9428E6B1
Copy CRC 9428E6B1
Accurately ripped (confidence 3) [30B296A2]
Copy OK
All tracks accurately ripped
No errors occurred
End of status report
 
Audiocheckera
AUDIOCHECKER v2.0 beta (build 457) - by Dester - opdester@freemail.hu
~~~~~~~~~~~~~~~~~~~~~~~~~~~~~~~~~~
-=== DO NOT EDIT THIS FILE! ===-
Path: ...\Marilyn Crispell, Georg Graewe - 1991 - Piano Duets (log, cue)
01 -=- 01 Roode Lion.flac -=- CDDA (100%)
02 -=- 02 Reves d'Assadour.flac -=- CDDA (100%)
03 -=- 03 Twin Dragons.flac -=- CDDA (100%)
04 -=- 04 Squares, Domes & Cones.flac -=- CDDA (100%)
05 -=- 05 Fervent Void.flac -=- CDDA (99%)
06 -=- 06 If She Be a Wall.flac -=- CDDA (42%)
07 -=- 07 Grey Chair & Parrots.flac -=- CDDA (100%)
08 -=- 08 Denis d'Or.flac -=- CDDA (92%)
09 -=- 09 Untitled Swirl.flac -=- CDDA (92%)
10 -=- 10 Interior A.flac -=- CDDA (76%)
11 -=- 11 Fringe.flac -=- CDDA (94%)
12 -=- 12 Stairway to Nowhere.flac -=- CDDA (42%)
13 -=- 13 Interior B.flac -=- CDDA (94%)
Summary 87,00% CDDA
16017204
 
cue
 
I
REM GENRE Jazz
REM DATE 1991
REM DISCID 3A0D5A05
REM COMMENT "ExactAudioCopy v0.99pb5"
PERFORMER "Marilyn Crispell & Georg Graewe"
TITLE "Piano Duets Disc 1"
FILE "01 - Roode Lion.wav" WAVE
TRACK 01 AUDIO
TITLE "Roode Lion"
PERFORMER "Marilyn Crispell & Georg Graewe"
PREGAP 00:00:33
INDEX 01 00:00:00
TRACK 02 AUDIO
TITLE "Reves d'Assadour"
PERFORMER "Marilyn Crispell & Georg Graewe"
INDEX 00 16:53:42
FILE "02 - Reves d'Assadour.wav" WAVE
INDEX 01 00:00:00
TRACK 03 AUDIO
TITLE "Twin Dragons"
PERFORMER "Marilyn Crispell & Georg Graewe"
INDEX 00 11:32:33
FILE "03 - Twin Dragons.wav" WAVE
INDEX 01 00:00:00
TRACK 04 AUDIO
TITLE "Squares, Domes & Cones"
PERFORMER "Marilyn Crispell & Georg Graewe"
INDEX 00 07:13:20
FILE "04 - Squares, Domes & Cones.wav" WAVE
INDEX 01 00:00:00
TRACK 05 AUDIO
TITLE "Fervent Void"
PERFORMER "Marilyn Crispell & Georg Graewe"
INDEX 00 09:03:53
FILE "05 - Fervent Void.wav" WAVE
INDEX 01 00:00:00
 
II
REM GENRE Jazz
REM DATE 1991
REM DISCID 6A0D6808
REM COMMENT "ExactAudioCopy v0.99pb5"
PERFORMER "Marilyn Crispell & Georg Graewe"
TITLE "Piano Duets Disc 2"
FILE "01 - If She Be a Wall.wav" WAVE
TRACK 01 AUDIO
TITLE "If She Be a Wall"
PERFORMER "Marilyn Crispell & Georg Graewe"
PREGAP 00:00:33
INDEX 01 00:00:00
TRACK 02 AUDIO
TITLE "Grey Chair & Parrots"
PERFORMER "Marilyn Crispell & Georg Graewe"
INDEX 00 07:28:55
FILE "02 - Grey Chair & Parrots.wav" WAVE
INDEX 01 00:00:00
TRACK 03 AUDIO
TITLE "Denis d'Or"
PERFORMER "Marilyn Crispell & Georg Graewe"
INDEX 00 05:57:00
FILE "03 - Denis d'Or.wav" WAVE
INDEX 01 00:00:00
TRACK 04 AUDIO
TITLE "Untitled Swirl"
PERFORMER "Marilyn Crispell & Georg Graewe"
INDEX 00 07:48:32
FILE "04 - Untitled Swirl.wav" WAVE
INDEX 01 00:00:00
TRACK 05 AUDIO
TITLE "Interior A"
PERFORMER "Marilyn Crispell & Georg Graewe"
INDEX 00 09:07:67
FILE "05 - Interior A.wav" WAVE
INDEX 01 00:00:00
TRACK 06 AUDIO
TITLE "Fringe"
PERFORMER "Marilyn Crispell & Georg Graewe"
INDEX 00 07:08:25
FILE "06 - Fringe.wav" WAVE
INDEX 01 00:00:00
TRACK 07 AUDIO
TITLE "Stairway to Nowhere"
PERFORMER "Marilyn Crispell & Georg Graewe"
INDEX 00 04:10:28
FILE "07 - Stairway to Nowhere.wav" WAVE
INDEX 01 00:00:00
TRACK 08 AUDIO
TITLE "Interior B"
PERFORMER "Marilyn Crispell & Georg Graewe"
INDEX 00 08:35:55
FILE "08 - Interior B.wav" WAVE
INDEX 01 00:00:00
Any questions -> support@pro-jazz.com. По всем вопросам пишите -> support@pro-jazz.com
23:21
132
Нет комментариев. Ваш будет первым!