Вы используете незарегистрированную версию компонента "Вкладки"!

Поиск

(Free Improvisation) Ab (Baars) & Terrie (Ex) - Hef - 2001, FLAC (tracks+.cue), lossless

Треклист:
Ab & Terrie - Hef
Жанр: Free Improvisation
Год выпуска диска: 2001
Производитель диска: Atavistic (ALP130CD)
Источник: вот.сиди (ReplacementDecanter)
Аудио кодек: FLAC
Тип рипа: tracks+.cue
Битрейт аудио: lossless
Продолжительность: 44:07
Трэклист:
1. Oud Over 4:22
2. De Yzeren Tulp 3:43
3. Stokdutter 4:08
4. Hamergaar 0:35
5. Yselijk 2:52
6. Termiet 2:36
7. Krijzeltanden I 1:13
8. Krijzeltanden II 0:47
9. M. Ali I 2:58
10. M. Ali II 2:57
11. Grameel 1:57
12. Grampel 1:14
13. Pets -> Knerp 3:20
14. Hef 10:39
Terrie Ex guitar
Ab Baars tenor saxophone, clarinet
 
Отчёт EAC
Exact Audio Copy V0.99 prebeta 4 from 23. January 2008
EAC extraction logfile from 30. May 2010, 6:42
Ab Baars & Terrie Ex / Hef
Used drive : TSSTcorpCD/DVDW TS-H652L Adapter: 2 ID: 0
Read mode : Secure
Utilize accurate stream : Yes
Defeat audio cache : Yes
Make use of C2 pointers : No
Read offset correction : 6
Overread into Lead-In and Lead-Out : No
Fill up missing offset samples with silence : Yes
Delete leading and trailing silent blocks : No
Null samples used in CRC calculations : Yes
Used interface : Native Win32 interface for Win NT & 2000
Gap handling : Appended to previous track
Used output format : Internal WAV Routines
Sample format : 44.100 Hz; 16 Bit; Stereo
TOC of the extracted CD
Track | Start | Length | Start sector | End sector
---------------------------------------------------------
1 | 0:00.00 | 4:25.63 | 0 | 19937
2 | 4:25.63 | 3:46.15 | 19938 | 36902
3 | 8:12.03 | 4:11.61 | 36903 | 55788
4 | 12:23.64 | 0:38.55 | 55789 | 58693
5 | 13:02.44 | 2:55.68 | 58694 | 71886
6 | 15:58.37 | 2:39.38 | 71887 | 83849
7 | 18:38.00 | 1:14.40 | 83850 | 89439
8 | 19:52.40 | 0:50.22 | 89440 | 93211
9 | 20:42.62 | 3:01.59 | 93212 | 106845
10 | 23:44.46 | 3:00.25 | 106846 | 120370
11 | 26:44.71 | 2:00.72 | 120371 | 129442
12 | 28:45.68 | 1:18.03 | 129443 | 135295
13 | 30:03.71 | 3:23.19 | 135296 | 150539
14 | 33:27.15 | 10:39.30 | 150540 | 198494
Track 1
Filename C:\EACrips\Ab Baars & Terrie Ex - Hef (2000) (flac)\01. Oud Over.wav
Pre-gap length 0:00:02.00
Peak level 97.7 %
Track quality 100.0 %
Test CRC C0118349
Copy CRC C0118349
Accurately ripped (confidence 1) [06F77D1B]
Copy OK
Track 2
Filename C:\EACrips\Ab Baars & Terrie Ex - Hef (2000) (flac)\02. De Yzeren Tulp.wav
Pre-gap length 0:00:03.00
Peak level 97.7 %
Track quality 100.0 %
Test CRC 0CC27C17
Copy CRC 0CC27C17
Accurately ripped (confidence 1) [13C8C261]
Copy OK
Track 3
Filename C:\EACrips\Ab Baars & Terrie Ex - Hef (2000) (flac)\03. Stokdutter.wav
Pre-gap length 0:00:03.00
Peak level 97.7 %
Track quality 100.0 %
Test CRC F54EA018
Copy CRC F54EA018
Accurately ripped (confidence 1) [320C0311]
Copy OK
Track 4
Filename C:\EACrips\Ab Baars & Terrie Ex - Hef (2000) (flac)\04. Hamergaan.wav
Pre-gap length 0:00:03.00
Peak level 97.7 %
Track quality 100.0 %
Test CRC A84553C9
Copy CRC A84553C9
Accurately ripped (confidence 1) [3FCF41C4]
Copy OK
Track 5
Filename C:\EACrips\Ab Baars & Terrie Ex - Hef (2000) (flac)\05. Yselяk.wav
Pre-gap length 0:00:02.98
Peak level 97.7 %
Track quality 100.0 %
Test CRC 38D93609
Copy CRC 38D93609
Accurately ripped (confidence 1) [6548B6C2]
Copy OK
Track 6
Filename C:\EACrips\Ab Baars & Terrie Ex - Hef (2000) (flac)\06. Termiet.wav
Pre-gap length 0:00:02.98
Peak level 97.7 %
Track quality 100.0 %
Test CRC 57E92C90
Copy CRC 57E92C90
Accurately ripped (confidence 1) [A9FBF789]
Copy OK
Track 7
Filename C:\EACrips\Ab Baars & Terrie Ex - Hef (2000) (flac)\07. Kryzeltanden I.wav
Pre-gap length 0:00:03.00
Peak level 97.7 %
Track quality 100.0 %
Test CRC 3873ECB0
Copy CRC 3873ECB0
Accurately ripped (confidence 1) [A950EFE4]
Copy OK
Track 8
Filename C:\EACrips\Ab Baars & Terrie Ex - Hef (2000) (flac)\08. Kryzeltanden II.wav
Pre-gap length 0:00:01.00
Peak level 97.7 %
Track quality 100.0 %
Test CRC 2ABCEAD2
Copy CRC 2ABCEAD2
Accurately ripped (confidence 1) [47C332C4]
Copy OK
Track 9
Filename C:\EACrips\Ab Baars & Terrie Ex - Hef (2000) (flac)\09. M. Ali I.wav
Pre-gap length 0:00:03.00
Peak level 90.8 %
Track quality 100.0 %
Test CRC 7F9C97EF
Copy CRC 7F9C97EF
Accurately ripped (confidence 1) [3CDAFE08]
Copy OK
Track 10
Filename C:\EACrips\Ab Baars & Terrie Ex - Hef (2000) (flac)\10. M. Ali II.wav
Pre-gap length 0:00:03.00
Peak level 90.9 %
Track quality 99.9 %
Test CRC 93226E37
Copy CRC 93226E37
Accurately ripped (confidence 1) [111A93BB]
Copy OK
Track 11
Filename C:\EACrips\Ab Baars & Terrie Ex - Hef (2000) (flac)\11. Grameel.wav
Pre-gap length 0:00:03.00
Peak level 97.7 %
Track quality 100.0 %
Test CRC A93B00E5
Copy CRC A93B00E5
Accurately ripped (confidence 1) [219CD078]
Copy OK
Track 12
Filename C:\EACrips\Ab Baars & Terrie Ex - Hef (2000) (flac)\12. Grampel.wav
Pre-gap length 0:00:02.98
Peak level 97.7 %
Track quality 99.8 %
Test CRC 4A8AC901
Copy CRC 4A8AC901
Accurately ripped (confidence 1) [70D229F3]
Copy OK
Track 13
Filename C:\EACrips\Ab Baars & Terrie Ex - Hef (2000) (flac)\13. Pets -] Knerp.wav
Pre-gap length 0:00:02.98
Peak level 97.7 %
Track quality 100.0 %
Test CRC 23ED254F
Copy CRC 23ED254F
Accurately ripped (confidence 1) [25403A30]
Copy OK
Track 14
Filename C:\EACrips\Ab Baars & Terrie Ex - Hef (2000) (flac)\14. Hef.wav
Pre-gap length 0:00:03.00
Peak level 97.7 %
Track quality 100.0 %
Test CRC E8CCDCBA
Copy CRC E8CCDCBA
Accurately ripped (confidence 1) [12C23364]
Copy OK
All tracks accurately ripped
No errors occurred
End of status report
 
cue
REM GENRE Jazz
REM DATE 2000
REM DISCID B60A560E
REM COMMENT "ExactAudioCopy v0.99pb4"
FILE "01. Oud Over.flac" WAVE
TRACK 01 AUDIO
INDEX 01 00:00:00
TRACK 02 AUDIO
INDEX 00 04:22:63
FILE "02. De Yzeren Tulp.flac" WAVE
INDEX 01 00:00:00
TRACK 03 AUDIO
INDEX 00 03:43:15
FILE "03. Stokdutter.flac" WAVE
INDEX 01 00:00:00
TRACK 04 AUDIO
INDEX 00 04:08:61
FILE "04. Hamergaan.flac" WAVE
INDEX 01 00:00:00
TRACK 05 AUDIO
INDEX 00 00:35:56
FILE "05. Yselяk.flac" WAVE
INDEX 01 00:00:00
TRACK 06 AUDIO
INDEX 00 02:52:69
FILE "06. Termiet.flac" WAVE
INDEX 01 00:00:00
TRACK 07 AUDIO
INDEX 00 02:36:38
FILE "07. Kryzeltanden I.flac" WAVE
INDEX 01 00:00:00
TRACK 08 AUDIO
INDEX 00 01:13:40
FILE "08. Kryzeltanden II.flac" WAVE
INDEX 01 00:00:00
TRACK 09 AUDIO
INDEX 00 00:47:22
FILE "09. M. Ali I.flac" WAVE
INDEX 01 00:00:00
TRACK 10 AUDIO
INDEX 00 02:58:59
FILE "10. M. Ali II.flac" WAVE
INDEX 01 00:00:00
TRACK 11 AUDIO
INDEX 00 02:57:25
FILE "11. Grameel.flac" WAVE
INDEX 01 00:00:00
TRACK 12 AUDIO
INDEX 00 01:57:73
FILE "12. Grampel.flac" WAVE
INDEX 01 00:00:00
TRACK 13 AUDIO
INDEX 00 01:15:04
FILE "13. Pets -] Knerp.flac" WAVE
INDEX 01 00:00:00
TRACK 14 AUDIO
INDEX 00 03:20:19
FILE "14. Hef.flac" WAVE
INDEX 01 00:00:00
 
Отчёт Audiocheckera
AUDIOCHECKER v2.0 beta (build 457) - by Dester - opdester@freemail.hu
~~~~~~~~~~~~~~~~~~~~~~~~~~~~~~~~~~
-=== DO NOT EDIT THIS FILE! ===-
Path: ...\Ab Baars & Terrie Ex - Hef (2000) (flac)
01 -=- 01. Oud Over.flac -=- CDDA (100%)
02 -=- 02. De Yzeren Tulp.flac -=- MPEG (92%)
03 -=- 03. Stokdutter.flac -=- CDDA (94%)
04 -=- 04. Hamergaan.flac -=- CDDA (100%)
05 -=- 05. Yselyk.flac -=- CDDA (76%)
06 -=- 06. Termiet.flac -=- CDDA (100%)
07 -=- 07. Kryzeltanden I.flac -=- CDDA (43%)
08 -=- 08. Kryzeltanden II.flac -=- CDDA (43%)
09 -=- 09. M. Ali I.flac -=- MPEG (89%)
10 -=- 10. M. Ali II.flac -=- CDDA (99%)
11 -=- 11. Grameel.flac -=- CDDA (100%)
12 -=- 12. Grampel.flac -=- CDDA (58%)
13 -=- 13. Pets -] Knerp.flac -=- CDDA (100%)
14 -=- 14. Hef.flac -=- CDDA (99%)
Summary 73,64% CDDA
38730036
 
Спектры 2. De Yzeren Tulp и 9. M. Ali I
Any questions -> support@pro-jazz.com. По всем вопросам пишите -> support@pro-jazz.com
23:21
133
Нет комментариев. Ваш будет первым!