Вы используете незарегистрированную версию компонента "Вкладки"!

Поиск

(Free Improvisation) John Butcher - Music on Seven Occasions. Selected duos and solos - 1999, FLAC (tracks+.cue), lossless

(Free Improvisation) John Butcher - Music on Seven Occasions. Selected duos and solos - 1999, FLAC (tracks+.cue), lossless
Треклист:
John Butcher - Music on Seven Occasions
Selected duos and solos
Жанр: Free Improvisation
Год выпуска диска: 1999
Производитель диска: Meniscus Records (MNSCS 004)
Источник: soulseek
Аудио кодек: FLAC
Тип рипа: tracks+.cue
Битрейт аудио: lossless
Продолжительность: 1:11:08
Трэклист:
1. Phlogiston (05.08)
2. Caloric (04.06)
3. Late impromptu (03.37)
4. 1rst singularity (03.17)
5. 2nd singularity (02.39)
6. Routemasters (04.23)
7. Sea they think they hear (03.30)
8. Gil thread dream (04.32)
9. Anomolies in the customs of the day (07.11)
10. The step sequence (04.24)
11. The late approach (03.18)
12. The interior design (02.53)
13. The only way out (03.14)
14. 3rd singularity (02.39)
15. 4th singularity (02.21)
16. Cold that bites (03.02)
17. Shadow play (02.47)
18. Clackchat (05.42)
John Butcher, tenor and soprano saxophones, in duo with:
Gino Robair, percussion and preparations (1, 2);
Alexander Frangenheim, double bass (3);
Veryan Weston, piano (6, 7, 8);
Thomas Lehn, analogue synthesizer (9);
John Corbett, guitar (10);
Jeb Bishop, trombone (11);
Terri Kapsalis, violin (12);
Fred Longberg-Holm, cello (13);
Michael Zerang, multiple percussion, tubaphone (tracks 16, 17, 18).
 
Отчёт EAC
EAC extraction logfile from 16. July 2007, 22:14 for CD
John Butcher / Music On Seven Occasions: Selected Duos And Solos
Used drive : HL-DT-STDVDRAM GSA-H10N Adapter: 3 ID: 1
Read mode : Secure with NO C2, accurate stream, disable cache
Read offset correction : 667
Overread into Lead-In and Lead-Out : No
Used output format : C:\Archivos de programa\FLAC\flac.exe (User Defined Encoder)
320 kBit/s
Additional command line options : -8 -V -T "artist=%a" -T "title=%t" -T "album=%g" -T "date=%y" -T "tracknumber=%n" -T "genre=%m" %s
Other options :
Fill up missing offset samples with silence : Yes
Delete leading and trailing silent blocks : No
Installed external ASPI interface
Track 1
Filename C:\John Butcher - Music On Seven Occasions (1999)[Flac]\01 - Phlogisten.wav
Pre-gap length 0:00:02.00
Peak level 95.2 %
Track quality 100.0 %
Test CRC 5EAA7A67
Copy CRC 5EAA7A67
Copy OK
Track 2
Filename C:\John Butcher - Music On Seven Occasions (1999)[Flac]\02 - Caloric.wav
Pre-gap length 0:00:08.00
Peak level 85.4 %
Track quality 100.0 %
Test CRC CD897AA8
Copy CRC CD897AA8
Copy OK
Track 3
Filename C:\John Butcher - Music On Seven Occasions (1999)[Flac]\03 - Late Impromptu.wav
Pre-gap length 0:00:08.00
Peak level 44.1 %
Track quality 99.9 %
Test CRC 82FC6677
Copy CRC 82FC6677
Copy OK
Track 4
Filename C:\John Butcher - Music On Seven Occasions (1999)[Flac]\04 - 1rst Singularity.wav
Pre-gap length 0:00:08.00
Peak level 72.8 %
Track quality 100.0 %
Test CRC 931E5C65
Copy CRC 931E5C65
Copy OK
Track 5
Filename C:\John Butcher - Music On Seven Occasions (1999)[Flac]\05 - 2nd Singularity.wav
Pre-gap length 0:00:08.00
Peak level 97.5 %
Track quality 100.0 %
Test CRC 8D97A8F0
Copy CRC 8D97A8F0
Copy OK
Track 6
Filename C:\John Butcher - Music On Seven Occasions (1999)[Flac]\06 - Routemasters.wav
Pre-gap length 0:00:08.00
Peak level 77.3 %
Track quality 100.0 %
Test CRC F8375571
Copy CRC F8375571
Copy OK
Track 7
Filename C:\John Butcher - Music On Seven Occasions (1999)[Flac]\07 - Sea They Think They Hear.wav
Pre-gap length 0:00:08.00
Peak level 50.5 %
Track quality 100.0 %
Test CRC ABAAA006
Copy CRC ABAAA006
Copy OK
Track 8
Filename C:\John Butcher - Music On Seven Occasions (1999)[Flac]\08 - Gil Thread Dream.wav
Pre-gap length 0:00:08.00
Peak level 67.7 %
Track quality 100.0 %
Test CRC DC2E1619
Copy CRC DC2E1619
Copy OK
Track 9
Filename C:\John Butcher - Music On Seven Occasions (1999)[Flac]\09 - Anomalies in the Customs of the Day.wav
Pre-gap length 0:00:10.00
Peak level 65.7 %
Track quality 99.9 %
Test CRC 55C50EAC
Copy CRC 55C50EAC
Copy OK
Track 10
Filename C:\John Butcher - Music On Seven Occasions (1999)[Flac]\10 - The Step Sequence.wav
Pre-gap length 0:00:08.00
Peak level 54.5 %
Track quality 100.0 %
Test CRC 2675911A
Copy CRC 2675911A
Copy OK
Track 11
Filename C:\John Butcher - Music On Seven Occasions (1999)[Flac]\11 - The Late Approach.wav
Pre-gap length 0:00:08.00
Peak level 100.0 %
Track quality 100.0 %
Test CRC 5D075A75
Copy CRC 5D075A75
Copy OK
Track 12
Filename C:\John Butcher - Music On Seven Occasions (1999)[Flac]\12 - The Interior Design.wav
Pre-gap length 0:00:08.00
Peak level 56.2 %
Track quality 100.0 %
Test CRC D844778F
Copy CRC D844778F
Copy OK
Track 13
Filename C:\John Butcher - Music On Seven Occasions (1999)[Flac]\13 - The Only Way Out.wav
Pre-gap length 0:00:08.00
Peak level 100.0 %
Track quality 99.9 %
Test CRC 2CEE1E7D
Copy CRC 2CEE1E7D
Copy OK
Track 14
Filename C:\John Butcher - Music On Seven Occasions (1999)[Flac]\14 - 3rd Singularity.wav
Pre-gap length 0:00:08.00
Peak level 49.3 %
Track quality 100.0 %
Test CRC 80590942
Copy CRC 80590942
Copy OK
Track 15
Filename C:\John Butcher - Music On Seven Occasions (1999)[Flac]\15 - 4th Singularity.wav
Pre-gap length 0:00:08.00
Peak level 46.7 %
Track quality 100.0 %
Test CRC CF284503
Copy CRC CF284503
Copy OK
Track 16
Filename C:\John Butcher - Music On Seven Occasions (1999)[Flac]\16 - Cold That Bites.wav
Pre-gap length 0:00:08.00
Peak level 86.5 %
Track quality 100.0 %
Test CRC E939E1A3
Copy CRC E939E1A3
Copy OK
Track 17
Filename C:\John Butcher - Music On Seven Occasions (1999)[Flac]\17 - Shadow Play.wav
Pre-gap length 0:00:08.00
Peak level 55.2 %
Track quality 100.0 %
Test CRC 449642D4
Copy CRC 449642D4
Copy OK
Track 18
Filename C:\John Butcher - Music On Seven Occasions (1999)[Flac]\18 - Clackchat.wav
Pre-gap length 0:00:08.00
Peak level 82.7 %
Track quality 100.0 %
Test CRC B2D8EC9F
Copy CRC B2D8EC9F
Copy OK
No errors occured
End of status report
 
cue
REM GENRE Jazz
REM DATE 1999
REM DISCID 0210AB12
REM COMMENT "ExactAudioCopy v0.95b4"
PERFORMER "John Butcher"
TITLE "Music On Seven Occasions: Selected Duos And Solos"
FILE "01 - Phlogisten.wav" WAVE
TRACK 01 AUDIO
TITLE "Phlogisten"
PERFORMER "John Butcher"
INDEX 01 00:00:00
TRACK 02 AUDIO
TITLE "Caloric"
PERFORMER "John Butcher"
INDEX 00 05:08:00
FILE "02 - Caloric.wav" WAVE
INDEX 01 00:00:00
TRACK 03 AUDIO
TITLE "Late Impromptu"
PERFORMER "John Butcher"
INDEX 00 04:07:18
FILE "03 - Late Impromptu.wav" WAVE
INDEX 01 00:00:00
TRACK 04 AUDIO
TITLE "1rst Singularity"
PERFORMER "John Butcher"
INDEX 00 03:38:07
FILE "04 - 1rst Singularity.wav" WAVE
INDEX 01 00:00:00
TRACK 05 AUDIO
TITLE "2nd Singularity"
PERFORMER "John Butcher"
INDEX 00 03:17:04
FILE "05 - 2nd Singularity.wav" WAVE
INDEX 01 00:00:00
TRACK 06 AUDIO
TITLE "Routemasters"
PERFORMER "John Butcher"
INDEX 00 02:38:73
FILE "06 - Routemasters.wav" WAVE
INDEX 01 00:00:00
TRACK 07 AUDIO
TITLE "Sea They Think They Hear"
PERFORMER "John Butcher"
INDEX 00 04:23:66
FILE "07 - Sea They Think They Hear.wav" WAVE
INDEX 01 00:00:00
TRACK 08 AUDIO
TITLE "Gil Thread Dream"
PERFORMER "John Butcher"
INDEX 00 03:30:57
FILE "08 - Gil Thread Dream.wav" WAVE
INDEX 01 00:00:00
TRACK 09 AUDIO
TITLE "Anomalies in the Customs of the Day"
PERFORMER "John Butcher"
INDEX 00 04:31:29
FILE "09 - Anomalies in the Customs of the Day.wav" WAVE
INDEX 01 00:00:00
TRACK 10 AUDIO
TITLE "The Step Sequence"
PERFORMER "John Butcher"
INDEX 00 07:11:71
FILE "10 - The Step Sequence.wav" WAVE
INDEX 01 00:00:00
TRACK 11 AUDIO
TITLE "The Late Approach"
PERFORMER "John Butcher"
INDEX 00 04:24:67
FILE "11 - The Late Approach.wav" WAVE
INDEX 01 00:00:00
TRACK 12 AUDIO
TITLE "The Interior Design"
PERFORMER "John Butcher"
INDEX 00 03:18:25
FILE "12 - The Interior Design.wav" WAVE
INDEX 01 00:00:00
TRACK 13 AUDIO
TITLE "The Only Way Out"
PERFORMER "John Butcher"
INDEX 00 02:53:14
FILE "13 - The Only Way Out.wav" WAVE
INDEX 01 00:00:00
TRACK 14 AUDIO
TITLE "3rd Singularity"
PERFORMER "John Butcher"
INDEX 00 03:14:41
FILE "14 - 3rd Singularity.wav" WAVE
INDEX 01 00:00:00
TRACK 15 AUDIO
TITLE "4th Singularity"
PERFORMER "John Butcher"
INDEX 00 02:39:15
FILE "15 - 4th Singularity.wav" WAVE
INDEX 01 00:00:00
TRACK 16 AUDIO
TITLE "Cold That Bites"
PERFORMER "John Butcher"
INDEX 00 02:21:26
FILE "16 - Cold That Bites.wav" WAVE
INDEX 01 00:00:00
TRACK 17 AUDIO
TITLE "Shadow Play"
PERFORMER "John Butcher"
INDEX 00 03:02:21
FILE "17 - Shadow Play.wav" WAVE
INDEX 01 00:00:00
TRACK 18 AUDIO
TITLE "Clackchat"
PERFORMER "John Butcher"
INDEX 00 02:46:56
FILE "18 - Clackchat.wav" WAVE
INDEX 01 00:00:00
 
Отчёт Audiocheckera
AUDIOCHECKER v2.0 beta (build 457) - by Dester - opdester@freemail.hu
~~~~~~~~~~~~~~~~~~~~~~~~~~~~~~~~~~
-=== DO NOT EDIT THIS FILE! ===-
Path: ...\john butcher 1999 music on seven occasions (mnscs 004)
01 -=- 01 - Phlogisten.flac -=- CDDA (100%)
02 -=- 02 - Caloric.flac -=- CDDA (100%)
03 -=- 03 - Late Impromptu.flac -=- CDDA (100%)
04 -=- 04 - 1rst Singularity.flac -=- CDDA (100%)
05 -=- 05 - 2nd Singularity.flac -=- CDDA (100%)
06 -=- 06 - Routemasters.flac -=- CDDA (100%)
07 -=- 07 - Sea They Think They Hear.flac -=- CDDA (100%)
08 -=- 08 - Gil Thread Dream.flac -=- CDDA (100%)
09 -=- 09 - Anomalies in the Customs of the Day.flac -=- CDDA (100%)
10 -=- 10 - The Step Sequence.flac -=- CDDA (100%)
11 -=- 11 - The Late Approach.flac -=- CDDA (100%)
12 -=- 12 - The Interior Design.flac -=- CDDA (99%)
13 -=- 13 - The Only Way Out.flac -=- CDDA (100%)
14 -=- 14 - 3rd Singularity.flac -=- CDDA (49%)
15 -=- 15 - 4th Singularity.flac -=- MPEG (90%)
16 -=- 16 - Cold That Bites.flac -=- CDDA (100%)
17 -=- 17 - Shadow Play.flac -=- CDDA (100%)
18 -=- 18 - Clackchat.flac -=- CDDA (100%)
Summary 92.11% CDDA
203335844
 
Спектр 4th Singularity
Any questions -> support@pro-jazz.com. По всем вопросам пишите -> support@pro-jazz.com
22:43
164
Нет комментариев. Ваш будет первым!