Вы используете незарегистрированную версию компонента "Вкладки"!

Поиск

(Free Improvisation, Emanem) John Butcher - Fixations (14) solo saxophone improvisations 1997-2000 - 2001, FLAC (tracks+.cue), lossless

(Free Improvisation, Emanem) John Butcher - Fixations (14) solo saxophone improvisations 1997-2000 - 2001, FLAC (tracks+.cue), lossless
Треклист:
John Butcher - Fixations (14)
solo saxophone improvisations 1997-2000
Жанр: Free Improvisation
Год выпуска диска: 2001
Производитель диска: Emanem (4045)
Источник: soulseek
Аудио кодек: FLAC
Тип рипа: tracks+.cue
Битрейт аудио: lossless
Продолжительность: 1:07:11
Трэклист:
1 - WOODLAND DRIFT - 3:02
2 - FIRST BOTTLE - 3:48
3 - SECOND BOTTLE - 8:07
4 - THIRD BOTTLE - 12:51
5 - LAST BOTTLE - 6:02
6 - THE TRAIN AND THE GATE part 1 - 4:16
7 - THE TRAIN AND THE GATE part 2 - 1:24
8 - ROBUSTA - 5:32
9 - LIBERICA - 4:55
10 - ALMOST NEW - 3:31
11 - NEARLY ART - 3:40
12 - SINKING DOWN - 2:15
13 - FLAG A RIDE - 4:02
14 - CLARENCE - 2:21
Digital recordings, all in concert except 6-7:
1 - Milwaukee - 1997 June 29
2-5 - Chicago - 2000 May 14
6-7 - Brussels - 2000 April 9
8-9 - Berkeley - 1997 June 22
10-11 - San Francisco - 2000 June 22
12-13 - Madrid - 2000 September 30
14 - London - 1999 May 20
JOHN BUTCHER soprano & tenor saxophones
 
Отчёт EAC
EAC extraction logfile from 7. May 2008, 0:01 for CD
John Butcher / Fixations (14) 1997-2000
Used drive : HL-DT-STDVDRAM GSA-H10N Adapter: 3 ID: 1
Read mode : Secure with NO C2, accurate stream, disable cache
Read offset correction : 667
Overread into Lead-In and Lead-Out : No
Used output format : C:\Archivos de programa\FLAC\flac.exe (User Defined Encoder)
320 kBit/s
Additional command line options : -8 -V -T "artist=%a" -T "title=%t" -T "album=%g" -T "date=%y" -T "tracknumber=%n" -T "genre=%m" %s
Other options :
Fill up missing offset samples with silence : Yes
Delete leading and trailing silent blocks : No
Installed external ASPI interface
Track 1
Filename C:\John Butcher - Fixations (14) 1997-2000 (2001)[Flac]{Emanem 4045}\01 - Woodland Drift.wav
Pre-gap length 0:00:02.00
Peak level 59.1 %
Track quality 100.0 %
Test CRC 89472137
Copy CRC 89472137
Copy OK
Track 2
Filename C:\John Butcher - Fixations (14) 1997-2000 (2001)[Flac]{Emanem 4045}\02 - First Bottle.wav
Pre-gap length 0:00:08.04
Peak level 100.0 %
Track quality 100.0 %
Test CRC 9CFDC133
Copy CRC 9CFDC133
Copy OK
Track 3
Filename C:\John Butcher - Fixations (14) 1997-2000 (2001)[Flac]{Emanem 4045}\03 - Second Bottle.wav
Pre-gap length 0:00:04.00
Peak level 69.3 %
Track quality 100.0 %
Test CRC 2148F824
Copy CRC 2148F824
Copy OK
Track 4
Filename C:\John Butcher - Fixations (14) 1997-2000 (2001)[Flac]{Emanem 4045}\04 - Thrid Bottle.wav
Pre-gap length 0:00:04.00
Peak level 100.0 %
Track quality 100.0 %
Test CRC E87E7DB0
Copy CRC E87E7DB0
Copy OK
Track 5
Filename C:\John Butcher - Fixations (14) 1997-2000 (2001)[Flac]{Emanem 4045}\05 - Last Bottle.wav
Pre-gap length 0:00:04.00
Peak level 35.4 %
Track quality 100.0 %
Test CRC 32B47896
Copy CRC 32B47896
Copy OK
Track 6
Filename C:\John Butcher - Fixations (14) 1997-2000 (2001)[Flac]{Emanem 4045}\06 - The Train and the Gate pt 1.wav
Pre-gap length 0:00:08.00
Peak level 59.1 %
Track quality 100.0 %
Test CRC 4ECC4909
Copy CRC 4ECC4909
Copy OK
Track 7
Filename C:\John Butcher - Fixations (14) 1997-2000 (2001)[Flac]{Emanem 4045}\07 - The Train and the Gate pt 2.wav
Pre-gap length 0:00:04.11
Peak level 41.6 %
Track quality 100.0 %
Test CRC E6610056
Copy CRC E6610056
Copy OK
Track 8
Filename C:\John Butcher - Fixations (14) 1997-2000 (2001)[Flac]{Emanem 4045}\08 - Robusta.wav
Pre-gap length 0:00:10.00
Peak level 70.2 %
Track quality 100.0 %
Test CRC 16B014D5
Copy CRC 16B014D5
Copy OK
Track 9
Filename C:\John Butcher - Fixations (14) 1997-2000 (2001)[Flac]{Emanem 4045}\09 - Liberica.wav
Pre-gap length 0:00:04.00
Peak level 85.3 %
Track quality 100.0 %
Test CRC 84A0113A
Copy CRC 84A0113A
Copy OK
Track 10
Filename C:\John Butcher - Fixations (14) 1997-2000 (2001)[Flac]{Emanem 4045}\10 - Almost New.wav
Pre-gap length 0:00:08.08
Peak level 57.7 %
Track quality 100.0 %
Test CRC 707A5929
Copy CRC 707A5929
Copy OK
Track 11
Filename C:\John Butcher - Fixations (14) 1997-2000 (2001)[Flac]{Emanem 4045}\11 - Nearly Art.wav
Pre-gap length 0:00:04.03
Peak level 99.8 %
Track quality 100.0 %
Test CRC 4207A941
Copy CRC 4207A941
Copy OK
Track 12
Filename C:\John Butcher - Fixations (14) 1997-2000 (2001)[Flac]{Emanem 4045}\12 - Sinking Down.wav
Pre-gap length 0:00:08.00
Peak level 80.1 %
Track quality 100.0 %
Test CRC 7AAFEE22
Copy CRC 7AAFEE22
Copy OK
Track 13
Filename C:\John Butcher - Fixations (14) 1997-2000 (2001)[Flac]{Emanem 4045}\13 - Flag a Ride.wav
Pre-gap length 0:00:03.00
Peak level 84.6 %
Track quality 100.0 %
Test CRC F1B25D67
Copy CRC F1B25D67
Copy OK
Track 14
Filename C:\John Butcher - Fixations (14) 1997-2000 (2001)[Flac]{Emanem 4045}\14 - Clarence.wav
Pre-gap length 0:00:08.00
Peak level 79.4 %
Track quality 100.0 %
Test CRC EFD7C642
Copy CRC EFD7C642
Copy OK
No errors occured
End of status report
 
cue
REM GENRE Avantgarde
REM DATE 2001
REM DISCID B80FBF0E
REM COMMENT "ExactAudioCopy v0.95b4"
PERFORMER "John Butcher"
TITLE "Fixations (14) 1997-2000"
FILE "01 - Woodland Drift.wav" WAVE
TRACK 01 AUDIO
TITLE "Woodland Drift"
PERFORMER "John Butcher"
INDEX 01 00:00:00
TRACK 02 AUDIO
TITLE "First Bottle"
PERFORMER "John Butcher"
INDEX 00 03:02:37
FILE "02 - First Bottle.wav" WAVE
INDEX 01 00:00:00
TRACK 03 AUDIO
TITLE "Second Bottle"
PERFORMER "John Butcher"
INDEX 00 03:48:04
FILE "03 - Second Bottle.wav" WAVE
INDEX 01 00:00:00
TRACK 04 AUDIO
TITLE "Thrid Bottle"
PERFORMER "John Butcher"
INDEX 00 08:07:14
FILE "04 - Thrid Bottle.wav" WAVE
INDEX 01 00:00:00
TRACK 05 AUDIO
TITLE "Last Bottle"
PERFORMER "John Butcher"
INDEX 00 12:51:55
FILE "05 - Last Bottle.wav" WAVE
INDEX 01 00:00:00
TRACK 06 AUDIO
TITLE "The Train and the Gate pt 1"
PERFORMER "John Butcher"
INDEX 00 06:03:36
FILE "06 - The Train and the Gate pt 1.wav" WAVE
INDEX 01 00:00:00
TRACK 07 AUDIO
TITLE "The Train and the Gate pt 2"
PERFORMER "John Butcher"
INDEX 00 04:16:35
FILE "07 - The Train and the Gate pt 2.wav" WAVE
INDEX 01 00:00:00
TRACK 08 AUDIO
TITLE "Robusta"
PERFORMER "John Butcher"
INDEX 00 01:24:08
FILE "08 - Robusta.wav" WAVE
INDEX 01 00:00:00
TRACK 09 AUDIO
TITLE "Liberica"
PERFORMER "John Butcher"
INDEX 00 05:32:55
FILE "09 - Liberica.wav" WAVE
INDEX 01 00:00:00
TRACK 10 AUDIO
TITLE "Almost New"
PERFORMER "John Butcher"
INDEX 00 04:55:59
FILE "10 - Almost New.wav" WAVE
INDEX 01 00:00:00
TRACK 11 AUDIO
TITLE "Nearly Art"
PERFORMER "John Butcher"
INDEX 00 03:30:74
FILE "11 - Nearly Art.wav" WAVE
INDEX 01 00:00:00
TRACK 12 AUDIO
TITLE "Sinking Down"
PERFORMER "John Butcher"
INDEX 00 03:40:67
FILE "12 - Sinking Down.wav" WAVE
INDEX 01 00:00:00
TRACK 13 AUDIO
TITLE "Flag a Ride"
PERFORMER "John Butcher"
INDEX 00 02:15:21
FILE "13 - Flag a Ride.wav" WAVE
INDEX 01 00:00:00
TRACK 14 AUDIO
TITLE "Clarence"
PERFORMER "John Butcher"
INDEX 00 04:02:71
FILE "14 - Clarence.wav" WAVE
INDEX 01 00:00:00
 
Отчёт Audiocheckera
AUDIOCHECKER v2.0 beta (build 457) - by Dester - opdester@freemail.hu
~~~~~~~~~~~~~~~~~~~~~~~~~~~~~~~~~~
-=== DO NOT EDIT THIS FILE! ===-
Path: ...\john butcher 2001 fixations (14) - solo saxophone improvisations 1997 - 2000 (emanem 4045)
01 -=- 01 - Woodland Drift.flac -=- CDDA (100%)
02 -=- 02 - First Bottle.flac -=- CDDA (100%)
03 -=- 03 - Second Bottle.flac -=- CDDA (94%)
04 -=- 04 - Third Bottle.flac -=- CDDA (100%)
05 -=- 05 - Last Bottle.flac -=- MPEG (89%)
06 -=- 06 - The Train And The Gate Part 1.flac -=- CDDA (100%)
07 -=- 07 - The Train And The Gate Part 2.flac -=- CDDA (100%)
08 -=- 08 - Robusta.flac -=- CDDA (100%)
09 -=- 09 - Liberica.flac -=- CDDA (100%)
10 -=- 10 - Almost New.flac -=- MPEG (93%)
11 -=- 11 - Nearly Art.flac -=- CDDA (100%)
12 -=- 12 - Sinking Down.flac -=- CDDA (99%)
13 -=- 13 - Flag A Ride.flac -=- CDDA (100%)
14 -=- 14 - Clarence.flac -=- CDDA (86%)
Summary 85.50% CDDA
226204724
 
Спектры непонятых Audiocheckeroм файлов
По всем вопросам пишите личное сообщение пользователю M0p94ok.
22:42
181
Нет комментариев. Ваш будет первым!