Вы используете незарегистрированную версию компонента "Вкладки"!

Поиск

(Free Improvisation) Joe McPhee / Lisle Ellis / Paul Plimley - Sweet Freedom - Now What? - 2008, FLAC (image+.cue), lossless

(Free Improvisation) Joe McPhee / Lisle Ellis / Paul Plimley - Sweet Freedom - Now What? - 2008, FLAC (image+.cue), lossless
Треклист:
Joe McPhee - Lisle Ellis - Paul Plimley / Sweet Freedom - Now What?
Жанр: Free Improvisation
Страна-производитель диска: Switzerland
Год издания: 2008
Издатель (лейбл): hatOLOGY
Номер по каталогу: 602
Аудиокодек: FLAC (*.flac)
Тип рипа: image+.cue
Битрейт аудио: lossless
Продолжительность: 72:31
Источник (релизер): cd
Наличие сканов в содержимом раздачи: нет
Треклист:
1 Mendacity (Slow) (Arranged By – Paul Plimley, Composed By – C. Bayen, Max Roach) 4:34
2 Driva' Man (Arranged By – Lisle Ellis, Composed By – Max Roach, Oscar Brown Jr.) 4:21
3 Roost 2 (Composed By – Lisle Ellis) 4:27
4a Self Portrait (Arranged By – Paul Plimley, Composed By – Max Roach) 9:50
4b Lift Every Voice And Sing (Composed By – James Weldon Johnson, Rosamond Johnson)
5 Singing With A Sword In My Hand (Composed By [Traditional Spiritual] – Traditional) 1:23
6 Roost 1 (Composed By – Lisle Ellis) 2:25
7 Garvey's Ghost (Arranged By – Paul Plimley Composed By – Max Roach) 12:45
8 Approaching The Smoke That Thunders (Composed By – Lisle Ellis) 4:53
9a Tryptich: (Prayer/Protest) (Arranged By – Paul Plimley Composed By – Max Roach) 7:54
9b Prolepsis (Composed By – Paul Plimley)
10 Mendacity (Fast) (Arranged By – Paul Plimley Composed By – C. Bayen, Max Roach) 6:02
11 A Head Of The HeartBeat (Composed By – Paul Plimley) 3:38
12 The Persistance Of Rosewood (Composed By – Joe McPhee) 9:39
13 Roost (Coda) (Composed By – Lisle Ellis) 0:40
 
Лог создания рипа
Exact Audio Copy V1.0 beta 2 from 29. April 2011
EAC extraction logfile from 13. January 2013, 14:02
Joe McPhee, Lisle Ellis, Paul Plimley / Sweet Freedom - Now What?
Used drive : Optiarc DVD RW AD-7170A Adapter: 0 ID: 0
Read mode : Secure
Utilize accurate stream : Yes
Defeat audio cache : Yes
Make use of C2 pointers : No
Read offset correction : 48
Overread into Lead-In and Lead-Out : No
Fill up missing offset samples with silence : Yes
Delete leading and trailing silent blocks : No
Null samples used in CRC calculations : Yes
Used interface : Native Win32 interface for Win NT & 2000
Used output format : User Defined Encoder
Selected bitrate : 320 kBit/s
Quality : High
Add ID3 tag : No
Command line compressor : C:\Program Files\Exact Audio Copy\Flac\flac.exe
Additional command line options : -V -8 -T "Date=%year%" -T "Genre=%genre%" %source%
TOC of the extracted CD
Track | Start | Length | Start sector | End sector
---------------------------------------------------------
1 | 0:00.00 | 4:34.62 | 0 | 20611
2 | 4:34.62 | 4:21.00 | 20612 | 40186
3 | 8:55.62 | 4:27.00 | 40187 | 60211
4 | 13:22.62 | 9:50.00 | 60212 | 104461
5 | 23:12.62 | 1:23.00 | 104462 | 110686
6 | 24:35.62 | 2:25.00 | 110687 | 121561
7 | 27:00.62 | 12:45.00 | 121562 | 178936
8 | 39:45.62 | 4:53.00 | 178937 | 200911
9 | 44:38.62 | 7:54.00 | 200912 | 236461
10 | 52:32.62 | 6:02.00 | 236462 | 263611
11 | 58:34.62 | 3:38.00 | 263612 | 279961
12 | 62:12.62 | 9:39.00 | 279962 | 323386
13 | 71:51.62 | 0:40.13 | 323387 | 326399
Range status and errors
Selected range
Filename K:\ЕАС\Joe McPhee, Lisle Ellis, Paul Plimley - Sweet Freedom - Now What.wav
Peak level 92.8 %
Extraction speed 2.1 X
Range quality 100.0 %
Test CRC 847E1697
Copy CRC 847E1697
Copy OK
No errors occurred
AccurateRip summary
Track 1 not present in database
Track 2 not present in database
Track 3 not present in database
Track 4 not present in database
Track 5 not present in database
Track 6 not present in database
Track 7 not present in database
Track 8 not present in database
Track 9 not present in database
Track 10 not present in database
Track 11 not present in database
Track 12 not present in database
Track 13 not present in database
None of the tracks are present in the AccurateRip database
End of status report
==== Log checksum D75138B9C47258511CCC888E93F7B8159DC6F6C699DB88D6B84841935E276905 ====
 
Содержание индексной карты (.CUE)
REM GENRE Jazz
REM DATE 2008
REM DISCID B711000D
REM COMMENT "ExactAudioCopy v1.0b2"
CATALOG 0000000000000
PERFORMER "Joe McPhee, Lisle Ellis, Paul Plimley"
TITLE "Sweet Freedom - Now What?"
FILE "Joe McPhee, Lisle Ellis, Paul Plimley - Sweet Freedom - Now What.flac" WAVE
TRACK 01 AUDIO
TITLE "Mendacity (slow)"
PERFORMER "Joe McPhee, Lisle Ellis, Paul Plimley"
ISRC CH1310801006
INDEX 01 00:00:00
TRACK 02 AUDIO
TITLE "Driva' Man"
PERFORMER "Joe McPhee, Lisle Ellis, Paul Plimley"
ISRC CH1310801007
INDEX 01 04:34:62
TRACK 03 AUDIO
TITLE "Roost 2"
PERFORMER "Joe McPhee, Lisle Ellis, Paul Plimley"
ISRC CH1310801008
INDEX 01 08:55:62
TRACK 04 AUDIO
TITLE "Self Portrait/Lift Every Voice And Sing"
PERFORMER "Joe McPhee, Lisle Ellis, Paul Plimley"
ISRC CH1310801009
INDEX 01 13:22:62
TRACK 05 AUDIO
TITLE "Singing With A Sword In My Hand"
PERFORMER "Joe McPhee, Lisle Ellis, Paul Plimley"
ISRC CH1310801010
INDEX 01 23:12:62
TRACK 06 AUDIO
TITLE "Roost 1"
PERFORMER "Joe McPhee, Lisle Ellis, Paul Plimley"
ISRC CH1310801011
INDEX 01 24:35:62
TRACK 07 AUDIO
TITLE "Garvey's Ghost"
PERFORMER "Joe McPhee, Lisle Ellis, Paul Plimley"
ISRC CH1310801012
INDEX 01 27:00:62
TRACK 08 AUDIO
TITLE "Approaching The Smoke That Thunders"
PERFORMER "Joe McPhee, Lisle Ellis, Paul Plimley"
ISRC CH1310801013
INDEX 01 39:45:62
TRACK 09 AUDIO
TITLE "Triptych: /Prolepsis"
PERFORMER "Joe McPhee, Lisle Ellis, Paul Plimley"
ISRC CH1310801014
INDEX 01 44:38:62
TRACK 10 AUDIO
TITLE "Mendacity (fast)"
PERFORMER "Joe McPhee, Lisle Ellis, Paul Plimley"
ISRC CH1310801015
INDEX 01 52:32:62
TRACK 11 AUDIO
TITLE "A Head Of The Heartbeat"
PERFORMER "Joe McPhee, Lisle Ellis, Paul Plimley"
ISRC CH1310801016
INDEX 01 58:34:62
TRACK 12 AUDIO
TITLE "The Persistence Of Rosewood"
PERFORMER "Joe McPhee, Lisle Ellis, Paul Plimley"
ISRC CH1310801017
INDEX 01 62:12:62
TRACK 13 AUDIO
TITLE "Roost (Coda)"
PERFORMER "Joe McPhee, Lisle Ellis, Paul Plimley"
ISRC CH1310801018
INDEX 01 71:51:62
Доп. информация: Digital Recording at Radio Studio DRS Zürich on July 27 & 28, 1994
 
Об альбоме (сборнике)
In 1994, Joe McPhee entered a studio in Zurich, Switzerland and recorded this thoughtful yet chance-taking response to Max Roach's ambitious Freedom Now Suite of 1960. McPhee, who is joined by Lisle Ellis on double bass and Paul Plimley on acoustic piano, could have easily turned Sweet Freedom, Now What? into yet another predictable, cliché-ridden jazz tribute album, but that doesn't happen. McPhee (who is a talented trumpeter but sticks to the tenor sax, soprano sax, and alto clarinet this time) doesn't treat Roach's compositions like museum pieces; instead, he embraces them on his own terms and brings many of his own ideas to the table. In fact, only about half of the songs were actually written or co-written by Roach; original compositions by McPhee, Ellis, and Plimley play a major role in the CD's creative success. Some listeners might be surprised to hear "Garvey's Ghost," "Driva' Man," "Self Portrait," and other Roach pieces played without drums -- after all, Roach was among the most famous drummers to come out of the bebop revolution of the 1940s. But then, the element of surprise is exactly what McPhee is going for on this rewarding, AACM-influenced inside/outside date.
 
Состав
Joe McPhee Arranger, Clarinet (Alto), Composer, Sax (Soprano), Sax (Tenor), Trumpet
Lisle Ellis Arranger, Composer, Double Bass
Paul Plimley Arranger, Composer, Piano
Any questions -> support@pro-jazz.com. По всем вопросам пишите -> support@pro-jazz.com
07:47
185
Нет комментариев. Ваш будет первым!