Вы используете незарегистрированную версию компонента "Вкладки"!

Поиск

(Free Improvisation, Intakt Records) Koch - Schutz - Studer - Life Tied - 2004, FLAC (tracks+.cue), lossless

(Free Improvisation, Intakt Records) Koch - Schutz - Studer - Life Tied - 2004, FLAC (tracks+.cue), lossless
Издатель (лейбл):
Треклист:
Koch - Schütz - Studer / Life Tied
Жанр: Free Improvisation, Intakt Records
Страна-производитель диска: Switzerland
Год издания: 2004
Издатель (лейбл): Intakt Records
Номер по каталогу: CD 094
Аудиокодек: FLAC (*.flac)
Тип рипа: tracks+.cue
Битрейт аудио: lossless
Продолжительность: 56:24
Источник (релизер): Max Monteiro
Наличие сканов в содержимом раздачи: да
Треклист:
1. No Time for Dinner 4:11
2. In drei Akten 10:14
3. The Burning Tongue 8:44
4. Last Rubber 6:59
5. Life Tied 6:43
6. Comes and Gones 5:36
7. The Whispering and Hammering Ritual 7:37
8. Vom Verschwinden 6:20
All compositions by Koch – Schütz – Studer.
 
Лог создания рипа
Exact Audio Copy V1.0 beta 3 from 29. August 2011
EAC extraction logfile from 31. May 2013, 14:03
Koch - Schütz - Studer / Life Tied
Used drive : SlimtypeeNAU508 5 Adapter: 1 ID: 0
Read mode : Secure
Utilize accurate stream : Yes
Defeat audio cache : Yes
Make use of C2 pointers : No
Read offset correction : 6
Overread into Lead-In and Lead-Out : No
Fill up missing offset samples with silence : Yes
Delete leading and trailing silent blocks : No
Null samples used in CRC calculations : Yes
Used interface : Native Win32 interface for Win NT & 2000
Gap handling : Appended to previous track
Used output format : User Defined Encoder
Selected bitrate : 768 kBit/s
Quality : High
Add ID3 tag : No
Command line compressor : C:\Program Files (x86)\Exact Audio Copy\Flac\flac.exe
Additional command line options : -8 -V -T "ARTIST=%artist%" -T "TITLE=%title%" -T "ALBUM=%albumtitle%" -T "DATE=%year%" -T "TRACKNUMBER=%tracknr%" -T "GENRE=%genre%" -T "PERFORMER=%albuminterpret%" -T "COMPOSER=%composer%" %haslyrics%--tag-from-file=LYRICS="%lyricsfile%"%haslyrics% -T "ALBUMARTIST=%albumartist%" -T "DISCNUMBER=%cdnumber%" -T "TOTALDISCS=%totalcds%" -T "TOTALTRACKS=%numtracks%" -T "COMMENT=%comment%" %source% -o %dest%
TOC of the extracted CD
Track | Start | Length | Start sector | End sector
---------------------------------------------------------
1 | 0:00.00 | 4:10.50 | 0 | 18799
2 | 4:10.50 | 10:14.00 | 18800 | 64849
3 | 14:24.50 | 8:44.07 | 64850 | 104156
4 | 23:08.57 | 6:58.45 | 104157 | 135551
5 | 30:07.27 | 6:43.35 | 135552 | 165811
6 | 36:50.62 | 5:36.21 | 165812 | 191032
7 | 42:27.08 | 7:36.48 | 191033 | 225280
8 | 50:03.56 | 6:20.19 | 225281 | 253799
Track 1
Filename C:\EAC rips\01 - No Time for Dinner.wav
Pre-gap length 0:00:02.00
Peak level 95.9 %
Extraction speed 0.9 X
Track quality 99.9 %
Test CRC CC01D165
Copy CRC CC01D165
Accurately ripped (confidence 1) [AE5C9004] (AR v1)
Copy OK
Track 2
Filename C:\EAC rips\02 - In drei Akten.wav
Peak level 95.8 %
Extraction speed 1.4 X
Track quality 100.0 %
Test CRC A524C674
Copy CRC A524C674
Accurately ripped (confidence 1) [CF992CCE] (AR v1)
Copy OK
Track 3
Filename C:\EAC rips\03 - The Burning Tongue.wav
Peak level 95.9 %
Extraction speed 1.6 X
Track quality 100.0 %
Test CRC 93894660
Copy CRC 93894660
Accurately ripped (confidence 1) [CBF8077F] (AR v1)
Copy OK
Track 4
Filename C:\EAC rips\04 - Last Rubber.wav
Peak level 95.6 %
Extraction speed 1.8 X
Track quality 100.0 %
Test CRC 5BF77B32
Copy CRC 5BF77B32
Accurately ripped (confidence 1) [226CBC1D] (AR v1)
Copy OK
Track 5
Filename C:\EAC rips\05 - Life Tied.wav
Peak level 97.3 %
Extraction speed 1.9 X
Track quality 100.0 %
Test CRC AC9CBA58
Copy CRC AC9CBA58
Accurately ripped (confidence 1) [111ACD0D] (AR v1)
Copy OK
Track 6
Filename C:\EAC rips\06 - Comes and Gones.wav
Peak level 99.9 %
Extraction speed 1.8 X
Track quality 99.9 %
Test CRC C95D59B1
Copy CRC C95D59B1
Accurately ripped (confidence 1) [8EF7A8D1] (AR v1)
Copy OK
Track 7
Filename C:\EAC rips\07 - The Whispering and Hammering Ritual.wav
Peak level 97.4 %
Extraction speed 2.1 X
Track quality 100.0 %
Test CRC 72FB8518
Copy CRC 72FB8518
Accurately ripped (confidence 1) [8706243A] (AR v1)
Copy OK
Track 8
Filename C:\EAC rips\08 - Vom Verschwinden.wav
Peak level 95.5 %
Extraction speed 2.2 X
Track quality 100.0 %
Test CRC C6D786E3
Copy CRC C6D786E3
Accurately ripped (confidence 1) [57F60BF3] (AR v1)
Copy OK
All tracks accurately ripped
No errors occurred
End of status report
---- CUETools DB Plugin V2.1.4
[CTDB TOCID: EXF.83FUQc2Za.BQDMyq689mN10-] disk not present in database
Submit result: EXF.83FUQc2Za.BQDMyq689mN10- has been uploaded
==== Log checksum 36C38FA22BE6B81653BCF083C6FBD2BE07723080FE2AD8B62AAD877CF1D88658 ====
 
Содержание индексной карты (.CUE)
REM GENRE Jazz
REM DATE 2004
REM DISCID 610D3808
REM COMMENT "ExactAudioCopy v1.0b3"
PERFORMER "Koch - Schütz - Studer"
TITLE "Life Tied"
FILE "01 - No Time for Dinner.wav" WAVE
TRACK 01 AUDIO
TITLE "No Time for Dinner"
PERFORMER "Koch - Schütz - Studer"
INDEX 01 00:00:00
FILE "02 - In drei Akten.wav" WAVE
TRACK 02 AUDIO
TITLE "In drei Akten"
PERFORMER "Koch - Schütz - Studer"
INDEX 01 00:00:00
FILE "03 - The Burning Tongue.wav" WAVE
TRACK 03 AUDIO
TITLE "The Burning Tongue"
PERFORMER "Koch - Schütz - Studer"
INDEX 01 00:00:00
FILE "04 - Last Rubber.wav" WAVE
TRACK 04 AUDIO
TITLE "Last Rubber"
PERFORMER "Koch - Schütz - Studer"
INDEX 01 00:00:00
FILE "05 - Life Tied.wav" WAVE
TRACK 05 AUDIO
TITLE "Life Tied"
PERFORMER "Koch - Schütz - Studer"
INDEX 01 00:00:00
FILE "06 - Comes and Gones.wav" WAVE
TRACK 06 AUDIO
TITLE "Comes and Gones"
PERFORMER "Koch - Schütz - Studer"
INDEX 01 00:00:00
FILE "07 - The Whispering and Hammering Ritual.wav" WAVE
TRACK 07 AUDIO
TITLE "The Whispering and Hammering Ritual"
PERFORMER "Koch - Schütz - Studer"
INDEX 01 00:00:00
FILE "08 - Vom Verschwinden.wav" WAVE
TRACK 08 AUDIO
TITLE "Vom Verschwinden"
PERFORMER "Koch - Schütz - Studer"
INDEX 01 00:00:00
Доп. информация: Recorded live at Biennale Venice, Italy (September 2003), Expo 02 Murten, Switzerland (May 2002), Théâtre de Poche Biel / Bienne, Switzerland (October 2001), Tonic New York, USA (March 2003).
 
Состав
Hans Koch – Reeds, Electronics
Martin Schütz – Electric 5-String Cello, Cello, Electronics
Fredy Studer – Drums, Percussion
Daniel Schneider – Live Sound
Any questions -> support@pro-jazz.com. По всем вопросам пишите -> support@pro-jazz.com
14:03
154
Нет комментариев. Ваш будет первым!