Вы используете незарегистрированную версию компонента "Вкладки"!

Поиск

(Avant-Garde, Intakt Records) Irene Schweizer – Maggie Nicols – George Lewis – Joelle Leandre – Gunter Sommer - The Storming of the Winter Palace - 2000 (1988), FLAC (tracks+.cue), lossless

(Avant-Garde, Intakt Records) Irene Schweizer – Maggie Nicols – George Lewis – Joelle Leandre – Gunter Sommer - The Storming of the Winter Palace - 2000 (1988), FLAC (tracks+.cue), lossless
Издатель (лейбл):
Треклист:
Schweizer – Nicols – Lewis – Léandre – Sommer / The Storming of the Winter Palace
Жанр: Avant-Garde, Intakt Records
Страна-производитель диска: Switzerland
Год издания: 2000 (1988)
Издатель (лейбл): Intakt Records
Номер по каталогу: CD 003
Аудиокодек: FLAC (*.flac)
Тип рипа: tracks+.cue
Битрейт аудио: lossless
Продолжительность: 51:17
Источник (релизер): Max Monteiro
Наличие сканов в содержимом раздачи: да
Треклист:
1. Now and Never (Irène Schweizer, Joëlle Léandre) 26:11
2. The Storming of the Winter Palace (Maggie Nicols, Irène Schweizer) 10:07
3. Living on the Edge (George Lewis, Günter Sommer) 14:59
 
Лог создания рипа
Exact Audio Copy V1.0 beta 3 from 29. August 2011
EAC extraction logfile from 26. May 2013, 15:34
Schweizer - Nicols - Lewis - Léandre - Sommer / The Storming of the Winter Palace
Used drive : SlimtypeeNAU508 5 Adapter: 1 ID: 0
Read mode : Secure
Utilize accurate stream : Yes
Defeat audio cache : Yes
Make use of C2 pointers : No
Read offset correction : 6
Overread into Lead-In and Lead-Out : No
Fill up missing offset samples with silence : Yes
Delete leading and trailing silent blocks : No
Null samples used in CRC calculations : Yes
Used interface : Native Win32 interface for Win NT & 2000
Gap handling : Appended to previous track
Used output format : User Defined Encoder
Selected bitrate : 768 kBit/s
Quality : High
Add ID3 tag : No
Command line compressor : C:\Program Files (x86)\Exact Audio Copy\Flac\flac.exe
Additional command line options : -8 -V -T "ARTIST=%artist%" -T "TITLE=%title%" -T "ALBUM=%albumtitle%" -T "DATE=%year%" -T "TRACKNUMBER=%tracknr%" -T "GENRE=%genre%" -T "PERFORMER=%albuminterpret%" -T "COMPOSER=%composer%" %haslyrics%--tag-from-file=LYRICS="%lyricsfile%"%haslyrics% -T "ALBUMARTIST=%albumartist%" -T "DISCNUMBER=%cdnumber%" -T "TOTALDISCS=%totalcds%" -T "TOTALTRACKS=%numtracks%" -T "COMMENT=%comment%" %source% -o %dest%
TOC of the extracted CD
Track | Start | Length | Start sector | End sector
---------------------------------------------------------
1 | 0:00.00 | 26:10.62 | 0 | 117811
2 | 26:10.62 | 10:07.00 | 117812 | 163336
3 | 36:17.62 | 14:59.13 | 163337 | 230774
Track 1
Filename C:\EAC rips\01 - Now and Never.wav
Pre-gap length 0:00:02.00
Peak level 89.8 %
Extraction speed 3.0 X
Track quality 100.0 %
Test CRC E6115622
Copy CRC E6115622
Cannot be verified as accurate (confidence 1) [0BD60D24], AccurateRip returned [1F50D7D8] (AR v2)
Copy OK
Track 2
Filename C:\EAC rips\02 - The Storming of the Winter Palace.wav
Pre-gap length 0:00:09.62
Peak level 80.1 %
Extraction speed 3.8 X
Track quality 100.0 %
Test CRC 7E3EEF6B
Copy CRC 7E3EEF6B
Accurately ripped (confidence 1) [F4A87FA4] (AR v1)
Copy OK
Track 3
Filename C:\EAC rips\03 - Living on the Edge.wav
Pre-gap length 0:00:01.62
Peak level 98.4 %
Extraction speed 4.3 X
Track quality 100.0 %
Test CRC 1801E8DD
Copy CRC 1801E8DD
Accurately ripped (confidence 1) [992DB7EB] (AR v1)
Copy OK
2 track(s) accurately ripped
1 track(s) could not be verified as accurate
Some tracks could not be verified as accurate
No errors occurred
End of status report
---- CUETools DB Plugin V2.1.4
[CTDB TOCID: KF3K8GxLT8jVUnV581KenJy_t6I-] found
Submit result: KF3K8GxLT8jVUnV581KenJy_t6I- has been confirmed
Track | CTDB Status
1 | (2/2) Accurately ripped
2 | (2/2) Accurately ripped
3 | (2/2) Accurately ripped
==== Log checksum 12C37B9FA43FCC3C64242D2A2EC84EFF5FCC1BCABBFCE246CEA8545767A3B2E2 ====
 
Содержание индексной карты (.CUE)
REM GENRE Jazz
REM DATE 2000
REM DISCID 240C0503
REM COMMENT "ExactAudioCopy v1.0b3"
PERFORMER "Schweizer - Nicols - Lewis - Léandre - Sommer"
TITLE "The Storming of the Winter Palace"
FILE "01 - Now and Never.wav" WAVE
TRACK 01 AUDIO
TITLE "Now and Never"
PERFORMER "Schweizer - Nicols - Lewis - Léandre - Sommer"
INDEX 01 00:00:00
TRACK 02 AUDIO
TITLE "The Storming of the Winter Palace"
PERFORMER "Schweizer - Nicols - Lewis - Léandre - Sommer"
INDEX 00 26:01:00
FILE "02 - The Storming of the Winter Palace.wav" WAVE
INDEX 01 00:00:00
TRACK 03 AUDIO
TITLE "Living on the Edge"
PERFORMER "Schweizer - Nicols - Lewis - Léandre - Sommer"
INDEX 00 10:05:13
FILE "03 - Living on the Edge.wav" WAVE
INDEX 01 00:00:00
Доп. информация: « Now and Never » recorded May 18th, 1986 at the International-New-Jazz-Festival-Moers by Westdeutscher Rundfunk (WDR), Köln.
« The Storming of the Winter Palace » and « Living on the Edge » recorded March 25th, 1988 at Taktlos-Festival, Rote Fabrik Zürich.
 
Состав
Irène Schweizer – Piano
Maggie Nicols – Voice
George Lewis – Trombone
Joëlle Léandre – Bass
Günter Sommer – Drums, Percussion
Any questions -> support@pro-jazz.com. По всем вопросам пишите -> support@pro-jazz.com
14:03
181
Нет комментариев. Ваш будет первым!