Вы используете незарегистрированную версию компонента "Вкладки"!

Поиск

(Free Improvisation, Hat Hut Records) Steve Lacy Five - Blinks... Zürich Live 1983 - 2011, FLAC (tracks+.cue), lossless

(Free Improvisation, Hat Hut Records) Steve Lacy Five - Blinks... Zürich Live 1983 - 2011, FLAC (tracks+.cue), lossless
Треклист:
Steve Lacy Five / Blinks... Zürich Live 1983
Жанр: Free Improvisation, Hat Hut Records
Страна-производитель диска: Switzerland
Год издания: 2011
Издатель (лейбл): Hat Hut Records
Номер по каталогу: hatOLOGY 697
Аудиокодек: FLAC (*.flac)
Тип рипа: tracks+.cue
Битрейт аудио: lossless
Продолжительность: 1:12:46
Источник (релизер): Max Monteiro
Наличие сканов в содержимом раздачи: нет
Треклист:
1. Stamps 7:34
2. Blinks 16:14
3. Prospectus 7:02
4. Wickets 18:50
5. Clichés 23:06
All compositions by Steve Lacy.
Recorded live at Rote Fabrik Zürich on February 12, 1983.
Steve Lacy – Soprano Saxophone
Steve Potts – Alto & Soprano Saxophones
Irène Aebi – Cello, Violin & Voice
Jean-Jacques Avenel – Double Bass
Oliver Johnson – Percussion
 
Лог создания рипа
Exact Audio Copy V1.0 beta 3 from 29. August 2011
EAC extraction logfile from 12. June 2013, 15:42
Steve Lacy Five / Blinks... Zürich Live 1983
Used drive : SlimtypeeNAU508 5 Adapter: 1 ID: 0
Read mode : Secure
Utilize accurate stream : Yes
Defeat audio cache : Yes
Make use of C2 pointers : No
Read offset correction : 6
Overread into Lead-In and Lead-Out : No
Fill up missing offset samples with silence : Yes
Delete leading and trailing silent blocks : No
Null samples used in CRC calculations : Yes
Used interface : Native Win32 interface for Win NT & 2000
Gap handling : Appended to previous track
Used output format : User Defined Encoder
Selected bitrate : 768 kBit/s
Quality : High
Add ID3 tag : No
Command line compressor : C:\Program Files (x86)\Exact Audio Copy\Flac\flac.exe
Additional command line options : -8 -V -T "ARTIST=%artist%" -T "TITLE=%title%" -T "ALBUM=%albumtitle%" -T "DATE=%year%" -T "TRACKNUMBER=%tracknr%" -T "GENRE=%genre%" -T "PERFORMER=%albuminterpret%" -T "COMPOSER=%composer%" %haslyrics%--tag-from-file=LYRICS="%lyricsfile%"%haslyrics% -T "ALBUMARTIST=%albumartist%" -T "DISCNUMBER=%cdnumber%" -T "TOTALDISCS=%totalcds%" -T "TOTALTRACKS=%numtracks%" -T "COMMENT=%comment%" %source% -o %dest%
TOC of the extracted CD
Track | Start | Length | Start sector | End sector
---------------------------------------------------------
1 | 0:00.00 | 7:33.49 | 0 | 34023
2 | 7:33.49 | 16:14.25 | 34024 | 107098
3 | 23:47.74 | 7:01.63 | 107099 | 138736
4 | 30:49.62 | 18:49.63 | 138737 | 223474
5 | 49:39.50 | 23:06.23 | 223475 | 327447
Track 1
Filename C:\EAC rips\01 - Stamps.wav
Pre-gap length 0:00:02.00
Peak level 98.8 %
Extraction speed 2.5 X
Track quality 100.0 %
Test CRC AECC42E2
Copy CRC AECC42E2
Accurately ripped (confidence 2) [8F9E0161] (AR v1)
Copy OK
Track 2
Filename C:\EAC rips\02 - Blinks.wav
Peak level 98.8 %
Extraction speed 3.2 X
Track quality 100.0 %
Test CRC 7F150C6A
Copy CRC 7F150C6A
Accurately ripped (confidence 2) [AE948C46] (AR v1)
Copy OK
Track 3
Filename C:\EAC rips\03 - Prospectus.wav
Peak level 98.8 %
Extraction speed 3.6 X
Track quality 100.0 %
Test CRC 810B3C48
Copy CRC 810B3C48
Accurately ripped (confidence 2) [864FDA81] (AR v1)
Copy OK
Track 4
Filename C:\EAC rips\04 - Wickets.wav
Peak level 98.8 %
Extraction speed 4.2 X
Track quality 100.0 %
Test CRC F57E6388
Copy CRC F57E6388
Accurately ripped (confidence 2) [C00C8A6F] (AR v1)
Copy OK
Track 5
Filename C:\EAC rips\05 - Clichés.wav
Peak level 98.8 %
Extraction speed 1.6 X
Track quality 99.8 %
Test CRC C69A6CE7
Copy CRC C69A6CE7
Accurately ripped (confidence 2) [07C8DD75] (AR v1)
Copy OK
All tracks accurately ripped
No errors occurred
End of status report
---- CUETools DB Plugin V2.1.4
[CTDB TOCID: qWrhbiQQF5TbraPcqZZ.NQJWINM-] found
Submit result: already submitted
Track | CTDB Status
1 | (1/1) Accurately ripped
2 | (1/1) Accurately ripped
3 | (1/1) Accurately ripped
4 | (1/1) Accurately ripped
5 | (1/1) Accurately ripped
==== Log checksum DA2B7175BBF8F5FE9343741189B36450F5DD026E17292372EA24925AC9E7EC38 ====
 
Содержание индексной карты (.CUE)
REM GENRE Jazz
REM DATE 2011
REM DISCID 43110D05
REM COMMENT "ExactAudioCopy v1.0b3"
PERFORMER "Steve Lacy Five"
TITLE "Blinks... Zürich Live 1983"
FILE "01 - Stamps.wav" WAVE
TRACK 01 AUDIO
TITLE "Stamps"
PERFORMER "Steve Lacy Five"
ISRC CH1311001205
INDEX 01 00:00:00
FILE "02 - Blinks.wav" WAVE
TRACK 02 AUDIO
TITLE "Blinks"
PERFORMER "Steve Lacy Five"
ISRC CH1311001205
INDEX 01 00:00:00
FILE "03 - Prospectus.wav" WAVE
TRACK 03 AUDIO
TITLE "Prospectus"
PERFORMER "Steve Lacy Five"
ISRC CH1311001206
INDEX 01 00:00:00
FILE "04 - Wickets.wav" WAVE
TRACK 04 AUDIO
TITLE "Wickets"
PERFORMER "Steve Lacy Five"
ISRC CH1311001208
INDEX 01 00:00:00
FILE "05 - Clichés.wav" WAVE
TRACK 05 AUDIO
TITLE "Clichés"
PERFORMER "Steve Lacy Five"
INDEX 01 00:00:00
Доп. информация: First issue as "Steve Lacy Two, Five & Six - Blinks" in 1997 (hat ART CD 2-6189, 2CDs).
Any questions -> support@pro-jazz.com. По всем вопросам пишите -> support@pro-jazz.com
14:42
226
Нет комментариев. Ваш будет первым!