Вы используете незарегистрированную версию компонента "Вкладки"!

Поиск

(Avant-Garde Jazz, Free Improvisation) Noah Howard Quartet - Live At The Unity Temple - 2000, APE (tracks+.cue), lossless

(Avant-Garde Jazz, Free Improvisation) Noah Howard Quartet - Live At The Unity Temple - 2000, APE (tracks+.cue), lossless
Треклист:
♦ Noah Howard Quartet - Live At The Unity Temple ♦
Жанр: Avant-Garde Jazz, Free Improvisation
Страна-производитель диска: Sweden
Год издания: 2000
Издатель (лейбл): Ayler Records
Номер по каталогу: aylCD-001
Аудиокодек: APE (*.ape)
Тип рипа: tracks+.cue
Битрейт аудио: lossless
Продолжительность: 01:05:50
Источник (релизер): Рип с диска.
Наличие сканов в содержимом раздачи: да
Треклист:
01. The Blessing [12:15]
02. In Transition [04:41]
03. Lovers - Schizophrenic Blues [18:55]
04. Lightning Rod. Part 1 [22:55]
05. Lightning Rod. Part 2 [07:03]
 
Лог создания рипа
Exact Audio Copy V1.0 beta 3 from 29. August 2011
EAC extraction logfile from 12. June 2013, 22:52
Noah Howard Quartet / Live At The Unity Temple
Used drive : Optiarc DVD RW AD-5200A Adapter: 0 ID: 0
Read mode : Secure
Utilize accurate stream : Yes
Defeat audio cache : Yes
Make use of C2 pointers : No
Read offset correction : 48
Overread into Lead-In and Lead-Out : No
Fill up missing offset samples with silence : Yes
Delete leading and trailing silent blocks : No
Null samples used in CRC calculations : Yes
Used interface : Native Win32 interface for Win NT & 2000
Gap handling : Appended to previous track
Used output format : User Defined Encoder
Selected bitrate : 128 kBit/s
Quality : High
Add ID3 tag : No
Command line compressor : F:\Program Files\Monkey's Audio\wapet.exe
Additional command line options : %dest% -t "Genre=%genre%" -t "Artist=%artist%" -t "Title=%title%" -t "Album=%albumtitle%" -t "Year=%year%" -t "Track=%tracknr%" -t "Comment=%comment%" mac.exe %source% %dest% -c3000
TOC of the extracted CD
Track | Start | Length | Start sector | End sector
---------------------------------------------------------
1 | 0:00.00 | 12:15.20 | 0 | 55144
2 | 12:15.20 | 4:41.46 | 55145 | 76265
3 | 16:56.66 | 18:55.35 | 76266 | 161425
4 | 35:52.26 | 22:55.04 | 161426 | 264554
5 | 58:47.30 | 7:03.11 | 264555 | 296290
Track 1
Filename F:\2000.Noah Howard - Live At The unity Temple\01. The Blessing.wav
Pre-gap length 0:00:02.00
Peak level 100.0 %
Extraction speed 2.5 X
Track quality 99.9 %
Test CRC 60FEC14F
Copy CRC 60FEC14F
Track not present in AccurateRip database
Copy OK
Track 2
Filename F:\2000.Noah Howard - Live At The unity Temple\02. In Transition.wav
Pre-gap length 0:00:02.00
Peak level 100.0 %
Extraction speed 2.9 X
Track quality 100.0 %
Test CRC D956767F
Copy CRC D956767F
Track not present in AccurateRip database
Copy OK
Track 3
Filename F:\2000.Noah Howard - Live At The unity Temple\03. Lovers - Schizophrenic Blues.wav
Pre-gap length 0:00:02.00
Peak level 100.0 %
Extraction speed 3.7 X
Track quality 100.0 %
Test CRC 5C029340
Copy CRC 5C029340
Track not present in AccurateRip database
Copy OK
Track 4
Filename F:\2000.Noah Howard - Live At The unity Temple\04. Lightning Rod. Part 1.wav
Pre-gap length 0:00:02.00
Peak level 99.9 %
Extraction speed 4.3 X
Track quality 100.0 %
Test CRC C15E5111
Copy CRC C15E5111
Track not present in AccurateRip database
Copy OK
Track 5
Filename F:\2000.Noah Howard - Live At The unity Temple\05. Lightning Rod. Part 2.wav
Pre-gap length 0:00:02.00
Peak level 99.9 %
Extraction speed 4.5 X
Track quality 100.0 %
Test CRC 146B997C
Copy CRC 146B997C
Track not present in AccurateRip database
Copy OK
None of the tracks are present in the AccurateRip database
No errors occurred
End of status report
==== Log checksum FD0A5AA860A7418D141962AC77FE40A000F093C979698E4F4E2E12F1B8604E41 ====
 
Содержание индексной карты (.CUE)
REM GENRE Jazz
REM DATE 1997
REM DISCID 3C0F6E05
REM COMMENT "ExactAudioCopy v1.0b3"
PERFORMER "Noah Howard Quartet"
TITLE "Live At The Unity Temple"
FILE "01. The Blessing.wav" WAVE
TRACK 01 AUDIO
TITLE "The Blessing"
PERFORMER "Noah Howard Quartet"
INDEX 01 00:00:00
TRACK 02 AUDIO
TITLE "In Transition"
PERFORMER "Noah Howard Quartet"
INDEX 00 12:13:20
FILE "02. In Transition.wav" WAVE
INDEX 01 00:00:00
TRACK 03 AUDIO
TITLE "Lovers - Schizophrenic Blues"
PERFORMER "Noah Howard Quartet"
INDEX 00 04:39:46
FILE "03. Lovers - Schizophrenic Blues.wav" WAVE
INDEX 01 00:00:00
TRACK 04 AUDIO
TITLE "Lightning Rod. Part 1"
PERFORMER "Noah Howard Quartet"
INDEX 00 18:53:35
FILE "04. Lightning Rod. Part 1.wav" WAVE
INDEX 01 00:00:00
TRACK 05 AUDIO
TITLE "Lightning Rod. Part 2"
PERFORMER "Noah Howard Quartet"
INDEX 00 22:53:04
FILE "05. Lightning Rod. Part 2.wav" WAVE
INDEX 01 00:00:00
 
Состав
Calyer Duncan - dr
Bobby Few - p
Noah Howard - as, ts
Wilber Morris - bRecorded in concert At The Unity Temple, Chicago, September 9, 1997.
По всем вопросам пишите личное сообщение пользователю M0p94ok.
14:41
348
Нет комментариев. Ваш будет первым!