Вы используете незарегистрированную версию компонента "Вкладки"!

Поиск

(Free Improvisation / Hat Hut Records) David Liebman, Richie Beirach, Ron McClure, Billy Hart - Redemption - Quest Live In Europe - 2007, FLAC (tracks+.cue), lossless

(Free Improvisation / Hat Hut Records) David Liebman, Richie Beirach, Ron McClure, Billy Hart - Redemption - Quest Live In Europe - 2007, FLAC (tracks+.cue), lossless
Треклист:
David Liebman, Richie Beirach, Ron McClure, Billy Hart
Redemption - Quest Live In Europe
Жанр: Free Improvisation
Страна-производитель диска: Switzerland
Год издания: 2007
Издатель (лейбл): Hat Hut Records Ltd.
Номер по каталогу: hatOLOGY 642
Аудиокодек: FLAC (*.flac)
Тип рипа: tracks+.cue
Битрейт аудио: lossless
Продолжительность: 76:13
Источник (релизер): собственный рип с оригинального Audio CD
Наличие сканов в содержимом раздачи: да / *.jpg (600 dpi)
Треклист:
1. Round Midnight by Thelonious Monk (11:29)
2. Ogunde by John Coltrane (10:26)
3. WTC/Steel Prayers by David Liebman / Richie Beirach (14:48)
4. Dark Eyes by Fedor Varany (11:44)
5. Lonely Woman by Ornette Coleman (08:21)
6. Redemption by Billy Hart (19:20)
Доп. информация:
Musicians:
DAVID LIEBMAN - soprano & tenor saxophones & wooden flute
RICHIE BEIRACH - piano
RON McCLURE - double bass
BILLY HART - drums
1 to 3 recorded live at Kantonsschule, Baden/ Switzerland on Nowember 3rd, 2005 by Peter Pfister
4 to 6 recorded live at Sunset Club/Paris by Radio France, on Nowember 2nd, 2005
© 2007 HAT HUT Records Ltd.
DAVID LIEBMAN, RICHIE BEIRACH, RON McCLURE, BILLY HART - Redemption - Quest Live In Europe allaboutjazz.com
DAVID LIEBMAN, RICHIE BEIRACH, RON McCLURE, BILLY HART - Redemption - Quest Live In Europe discogs.com
DAVE LIEBMAN Official Site
RICHIE BEIRACH Official Site
RICHIE BEIRACH from Wikipedia, the free encyclopedia
RON McCLURE Official Site
RON McCLURE from Wikipedia, the free encyclopedia
BILLY HART drummerworld.com
BILLY HART from Wikipedia, the free encyclopedia
 
... text ...
To be back on tour with Quest after fifteen years was like going home. We are peers with a common language that traverses the past several decades of music; experience and commonality are intangibles which when present create a sum much greater than the individual parts. What a joy to be back with the brothers...not a step was missed. ~ David Liebman
 
... review ...
The passage of time has no meaning when it comes to the kind of intimate musical understanding that saxophonist David Liebman and pianist Richie Beirach have shared since first working together in the early '70s. They have collaborated on numerous group projects as well as a series of duet recordings that are in dire need of reissue. Perhaps their longest and most enduring group was Quest, a quartet that released half a dozen albums between 1981 and 1990.
Redemption – Quest Live in Europe documents a 2005 reunion, and in many respects it feels as if no time has passed. The chemistry shared with bassist Ron McClure and drummer Billy Hart remains intact, but this is no backwards-looking get-together. Instead, it's a chance to hear where the past fifteen years have led these musicians, both individually and collectively.
Beirach and Liebman open with a duet take on Monk's "'Round Midnight," beginning in brief abstraction before finding its way to the familiar theme. A feeling of total spontaneity without a safety net pervades Liebman and Beirach's expansive examination of the tune's rhythmic, harmonic and thematic possibilities. Still, no matter how far they take it, what defines the tune is never far away.
Liebman and Beirach have always shared deep roots in the music of John Coltrane. Transcending mere reverence, however, Quest makes latter-day Coltrane's "Ogunde" its own through a more deeply lyrical approach to this tumultuous tone poem. McClure and Hart create a curiously understated maelstrom beneath Beirach's poignant melodism before leading into a more outgoing and extreme solo from Liebman. McClure's supple pizzicato support and visceral arco are a continuing reminder of how unfairly overlooked a player he remains.
Liebman's "WTC" is an abstract exploration into the emotional impact of the September 11 Word Trade Center attack. Dark and foreboding, the chemistry of the quartet gradually builds Liebman's abstruse yet unequivocal theme to a logical point where Beirach becomes the sole voice, segueing into "Steel Prayers," Beirach's mournful yet equally hopeful conclusion.
"Dark Eyes" is Quest at its most swinging, yet there's still an underlying sense of abandon. McClure is the fluid anchor beneath Leibman's powerful tenor, with Hart and Beirach pushing and pulling to create an ongoing tension and release. Ornette Coleman's "Lonely Woman" becomes a rubato tone poem, with Liebman's wooden flute giving the piece an otherworldly feel.
The title track has been in the group's repertoire since the mid-'80s, but this twenty-minute version of Hart's tune is definitive – a potent blend of free interaction, powerful rhythmic interplay and post-Coltrane modality.
It's uncertain whether or not Quest will continue to work together. Based on Redemption, however, it's clear that there's no shortage of inspiration to keep it a viable and vital concern.
John Kelman ~ allaboutjazz.com
 
... back ...
 
EAC / evidence
 
EAC extraction logfile from 26. October 2012, 16:48
Exact Audio Copy V1.0 beta 3 from 29. August 2011
EAC extraction logfile from 26. October 2012, 16:48
Liebman, Beirach, McClure, Hart / Redemption - Quest Live In Europe
Used drive : Optiarc DVD RW AD-7260S Adapter: 3 ID: 0
Read mode : Secure
Utilize accurate stream : Yes
Defeat audio cache : Yes
Make use of C2 pointers : No
Read offset correction : 48
Overread into Lead-In and Lead-Out : No
Fill up missing offset samples with silence : Yes
Delete leading and trailing silent blocks : No
Null samples used in CRC calculations : Yes
Used interface : Native Win32 interface for Win NT & 2000
Gap handling : Appended to previous track
Used output format : User Defined Encoder
Selected bitrate : 128 kBit/s
Quality : High
Add ID3 tag : No
Command line compressor : C:\Program Files\Exact Audio Copy\Flac\flac.exe
Additional command line options : -V -8 -T "Genre=%genre%" -T "Artist=%artist%" -T "Title=%title%" -T "Album=%albumtitle%" -T "Date=%year%" -T "Tracknumber=%tracknr%" -T "Comment=%comment%" %source%
TOC of the extracted CD
Track | Start | Length | Start sector | End sector
---------------------------------------------------------
1 | 0:00.00 | 11:29.15 | 0 | 51689
2 | 11:29.15 | 10:26.70 | 51690 | 98709
3 | 21:56.10 | 14:48.11 | 98710 | 165320
4 | 36:44.21 | 11:44.57 | 165321 | 218177
5 | 48:29.03 | 8:21.44 | 218178 | 255796
6 | 56:50.47 | 19:20.29 | 255797 | 342825
Track 1
Filename E:\rip by readab\Liebman, Beirach, McClure, Hart - Redemption - Quest Live In Europe (2007)\01 - Round Midnight.wav
Pre-gap length 0:00:02.00
Peak level 91.5 %
Extraction speed 2.9 X
Track quality 99.9 %
Test CRC 5DB1D6A6
Copy CRC 5DB1D6A6
Track not present in AccurateRip database
Copy OK
Track 2
Filename E:\rip by readab\Liebman, Beirach, McClure, Hart - Redemption - Quest Live In Europe (2007)\02 - Ogunde.wav
Peak level 99.0 %
Extraction speed 3.7 X
Track quality 100.0 %
Test CRC 1AD3AC32
Copy CRC 1AD3AC32
Track not present in AccurateRip database
Copy OK
Track 3
Filename E:\rip by readab\Liebman, Beirach, McClure, Hart - Redemption - Quest Live In Europe (2007)\03 - WTC - Steel Prayers.wav
Peak level 94.4 %
Extraction speed 4.3 X
Track quality 100.0 %
Test CRC 976BD880
Copy CRC 976BD880
Track not present in AccurateRip database
Copy OK
Track 4
Filename E:\rip by readab\Liebman, Beirach, McClure, Hart - Redemption - Quest Live In Europe (2007)\04 - Dark Eyes.wav
Peak level 99.0 %
Extraction speed 4.8 X
Track quality 100.0 %
Test CRC E0FB0AF8
Copy CRC E0FB0AF8
Track not present in AccurateRip database
Copy OK
Track 5
Filename E:\rip by readab\Liebman, Beirach, McClure, Hart - Redemption - Quest Live In Europe (2007)\05 - Lonely Woman.wav
Peak level 90.4 %
Extraction speed 5.1 X
Track quality 100.0 %
Test CRC 5EDE55F9
Copy CRC 5EDE55F9
Track not present in AccurateRip database
Copy OK
Track 6
Filename E:\rip by readab\Liebman, Beirach, McClure, Hart - Redemption - Quest Live In Europe (2007)\06 - Redemption.wav
Peak level 92.6 %
Extraction speed 4.5 X
Track quality 100.0 %
Test CRC CF843B8F
Copy CRC CF843B8F
Track not present in AccurateRip database
Copy OK
None of the tracks are present in the AccurateRip database
No errors occurred
End of status report
==== Log checksum 466F8B25CBB852C758E11000E6FA715369391391FD4F67DFE1A3B12B6FDB197A ====
 
Содержание индексной карты (.CUE)
REM GENRE Jazz
REM DATE 2007
REM DISCID 4011DB06
REM COMMENT "ExactAudioCopy v1.0b3"
PERFORMER "Liebman, Beirach, McClure, Hart"
TITLE "Redemption - Quest Live In Europe"
FILE "01 - Round Midnight.wav" WAVE
TRACK 01 AUDIO
TITLE "Round Midnight"
PERFORMER "Liebman, Beirach, McClure, Hart"
ISRC CH1310700821
INDEX 01 00:00:00
FILE "02 - Ogunde.wav" WAVE
TRACK 02 AUDIO
TITLE "Ogunde"
PERFORMER "Liebman, Beirach, McClure, Hart"
ISRC CH1310700822
INDEX 01 00:00:00
FILE "03 - WTC - Steel Prayers.wav" WAVE
TRACK 03 AUDIO
TITLE "WTC - Steel Prayers"
PERFORMER "Liebman, Beirach, McClure, Hart"
ISRC CH1310700823
INDEX 01 00:00:00
FILE "04 - Dark Eyes.wav" WAVE
TRACK 04 AUDIO
TITLE "Dark Eyes"
PERFORMER "Liebman, Beirach, McClure, Hart"
ISRC CH1310700824
INDEX 01 00:00:00
FILE "05 - Lonely Woman.wav" WAVE
TRACK 05 AUDIO
TITLE "Lonely Woman"
PERFORMER "Liebman, Beirach, McClure, Hart"
ISRC CH1310700825
INDEX 01 00:00:00
FILE "06 - Redemption.wav" WAVE
TRACK 06 AUDIO
TITLE "Redemption"
PERFORMER "Liebman, Beirach, McClure, Hart"
ISRC CH1310700826
INDEX 01 00:00:00
... релизы с участием DAVE LIEBMAN на трекере ...
Any questions -> support@pro-jazz.com. По всем вопросам пишите -> support@pro-jazz.com
04:38
385
Нет комментариев. Ваш будет первым!