Вы используете незарегистрированную версию компонента "Вкладки"!

Поиск

(Avant-Garde Jazz, Modern Creative) Kyle Bruckmann - On Procedural Grounds - 2012, FLAC (image+.cue), lossless

Треклист:
•Kyle Bruckmann - On Procedural Grounds•
Жанр: Avant-Garde Jazz, Modern Creative
Страна-производитель диска: USA
Год издания: 2012
Издатель (лейбл): New World
Номер по каталогу: 80725-2
Аудиокодек: FLAC (*.flac)
Тип рипа: image+.cue
Битрейт аудио: lossless
Продолжительность: 01:04:58
Источник (релизер): Piterets
Наличие сканов в содержимом раздачи: да
Треклист:
01.Cell Structure (2009) {11:23}
02.On Procedural Grounds (2010) {29:22}
03.Orgone Accelerator (2010) {08:05}
04.Tarpit (2009) {16:06}
Personnel:
#1: Kyle Bruckmann, oboe; Matt Ingalls, clarinet; with electronics
#2: Wrack (Kyle Bruckmann, oboe; Jen Clare Paulson, viola; Jason Stein, bass clarinet; Anton Hatwich,
contrabass; Timothy Daisy, percussion); Rova Saxophone Quartet (Bruce Ackley, Larry Ochs, Jon
Raskin, Steve Adams); Gino Robair, Tim Perkis, live electronics
#3: Kyle Bruckmann, oboe and electronics
#4: Kyle Bruckmann, oboe; Matt Ingalls, bass clarinet; John Ingle, alto saxophone; Gino
Robair, prepared piano; Benjamin Kreith, violin; Tara Flandreau, viola; Monica Scott, cello; Kjell
Nordesen, percussion; with electronics
 
Лог создания рипа
Exact Audio Copy V1.0 beta 3 from 29. August 2011
EAC extraction logfile from 21. October 2012, 14:04
Kyle Bruckmann / On Procedural Grounds
Used drive : TSSTcorpCDDVDW TS-L632H Adapter: 1 ID: 0
Read mode : Secure
Utilize accurate stream : Yes
Defeat audio cache : Yes
Make use of C2 pointers : No
Read offset correction : 6
Overread into Lead-In and Lead-Out : No
Fill up missing offset samples with silence : Yes
Delete leading and trailing silent blocks : No
Null samples used in CRC calculations : Yes
Used interface : Native Win32 interface for Win NT & 2000
Used output format : User Defined Encoder
Selected bitrate : 768 kBit/s
Quality : High
Add ID3 tag : No
Command line compressor : C:\Program Files\Exact Audio Copy\FLAC\FLAC.EXE
Additional command line options : -6 -V -T "ARTIST=%artist%" -T "TITLE=%title%" -T "ALBUM=%albumtitle%" -T "DATE=%year%" -T "TRACKNUMBER=%tracknr%" -T "GENRE=%genre%" -T "COMMENT=%comment%" -T "BAND=%albuminterpret%" -T "ALBUMARTIST=%albuminterpret%" -T "COMPOSER=%composer%" %haslyrics%--tag-from-file=LYRICS="%lyricsfile%"%haslyrics% -T "DISCNUMBER=%cdnumber%" -T "TOTALDISCS=%totalcds%" -T "TOTALTRACKS=%numtracks%" %hascover%--picture="%coverfile%"%hascover% %source% -o %dest%
TOC of the extracted CD
Track | Start | Length | Start sector | End sector
---------------------------------------------------------
1 | 0:00.00 | 11:23.71 | 0 | 51295
2 | 11:23.71 | 29:22.56 | 51296 | 183501
3 | 40:46.52 | 8:05.54 | 183502 | 219930
4 | 48:52.31 | 16:06.15 | 219931 | 292395
Range status and errors
Selected range
Filename D:\Kyle Bruckmann - On Procedural Grounds\Kyle Bruckmann - On Procedural Grounds.wav
Peak level 98.8 %
Extraction speed 1.7 X
Range quality 100.0 %
Test CRC 78948C03
Copy CRC 78948C03
Copy OK
No errors occurred
AccurateRip summary
Track 1 not present in database
Track 2 not present in database
Track 3 not present in database
Track 4 not present in database
None of the tracks are present in the AccurateRip database
End of status report
==== Log checksum 2F91E0B5E771916936317FCEAD884C9C8C000ADFC570C4604F3C51FB118EFB9F ====
 
Содержание индексной карты (.CUE)
REM GENRE Classical
REM DATE 2012
REM DISCID 390F3A04
REM COMMENT "ExactAudioCopy v1.0b3"
PERFORMER "Kyle Bruckmann"
TITLE "On Procedural Grounds"
FILE "Kyle Bruckmann - On Procedural Grounds.flac" WAVE
TRACK 01 AUDIO
TITLE "Cell Structure (2009)"
PERFORMER "Kyle Bruckmann"
INDEX 01 00:00:00
TRACK 02 AUDIO
TITLE "On Procedural Grounds (2010)"
PERFORMER "Kyle Bruckmann"
INDEX 00 11:15:63
INDEX 01 11:23:71
TRACK 03 AUDIO
TITLE "Orgone Accelerator (2010)"
PERFORMER "Kyle Bruckmann"
INDEX 00 40:40:70
INDEX 01 40:46:52
TRACK 04 AUDIO
TITLE "Tarpit (2009)"
PERFORMER "Kyle Bruckmann"
INDEX 00 48:46:26
INDEX 01 48:52:31
Any questions -> support@pro-jazz.com. По всем вопросам пишите -> support@pro-jazz.com
04:37
187
Нет комментариев. Ваш будет первым!