Вы используете незарегистрированную версию компонента "Вкладки"!

Поиск

(Free Improvisation) Hans Koch, Julien Pinol, Ramon Lopez - Ellipses - 2002, FLAC (tracks+.cue), lossless

(Free Improvisation) Hans Koch, Julien Pinol, Ramon Lopez - Ellipses - 2002, FLAC (tracks+.cue), lossless
Треклист:
Hans Koch, Julien Pinol, Ramon Lopez / Ellipses
Жанр: Free Improvisation
Страна-производитель диска: Switzerland
Год издания: 2002
Издатель (лейбл): Doron Jazz
Номер по каталогу: DRJ 1016
Аудиокодек: FLAC (*.flac)
Тип рипа: tracks+.cue
Битрейт аудио: lossless
Продолжительность: 58:20
Источник (релизер): Max Monteiro
Наличие сканов в содержимом раздачи: нет
Треклист:
1. Untitled 9:06
2. Untitled 9:58
3. Untitled 6:43
4. Untitled 6:42
5. Untitled 5:30
6. Untitled 8:43
7. Untitled 4:47
8. Untitled 6:51
All compositions by Hans Koch – Julien Pinol – Ramon Lopez.
Recorded live on November 16 & 17, 2001.
Hans Koch – Tenor & Soprano Saxophones, Bass Clarinet
Julien Pinol – Guitar
Ramon Lopez – Drums
 
Лог создания рипа
Exact Audio Copy V1.0 beta 3 from 29. August 2011
EAC extraction logfile from 15. June 2013, 15:52
Hans Koch, Julien Pinol, Ramon Lopez / Ellipses
Used drive : SlimtypeeNAU508 5 Adapter: 1 ID: 0
Read mode : Secure
Utilize accurate stream : Yes
Defeat audio cache : Yes
Make use of C2 pointers : No
Read offset correction : 6
Overread into Lead-In and Lead-Out : No
Fill up missing offset samples with silence : Yes
Delete leading and trailing silent blocks : No
Null samples used in CRC calculations : Yes
Used interface : Native Win32 interface for Win NT & 2000
Gap handling : Appended to previous track
Used output format : User Defined Encoder
Selected bitrate : 768 kBit/s
Quality : High
Add ID3 tag : No
Command line compressor : C:\Program Files (x86)\Exact Audio Copy\Flac\flac.exe
Additional command line options : -8 -V -T "ARTIST=%artist%" -T "TITLE=%title%" -T "ALBUM=%albumtitle%" -T "DATE=%year%" -T "TRACKNUMBER=%tracknr%" -T "GENRE=%genre%" -T "PERFORMER=%albuminterpret%" -T "COMPOSER=%composer%" %haslyrics%--tag-from-file=LYRICS="%lyricsfile%"%haslyrics% -T "ALBUMARTIST=%albumartist%" -T "DISCNUMBER=%cdnumber%" -T "TOTALDISCS=%totalcds%" -T "TOTALTRACKS=%numtracks%" -T "COMMENT=%comment%" %source% -o %dest%
TOC of the extracted CD
Track | Start | Length | Start sector | End sector
---------------------------------------------------------
1 | 0:00.00 | 9:06.05 | 0 | 40954
2 | 9:06.05 | 9:57.71 | 40955 | 85800
3 | 19:04.01 | 6:43.23 | 85801 | 116048
4 | 25:47.24 | 6:41.67 | 116049 | 146190
5 | 32:29.16 | 5:29.47 | 146191 | 170912
6 | 37:58.63 | 8:43.25 | 170913 | 210162
7 | 46:42.13 | 4:47.10 | 210163 | 231697
8 | 51:29.23 | 6:50.55 | 231698 | 262502
Track 1
Filename C:\EAC rips\01 - Untitled.wav
Pre-gap length 0:00:02.00
Peak level 95.0 %
Extraction speed 2.4 X
Track quality 100.0 %
Test CRC 3A377912
Copy CRC 3A377912
Track not present in AccurateRip database
Copy OK
Track 2
Filename C:\EAC rips\02 - Untitled.wav
Pre-gap length 0:00:04.10
Peak level 91.7 %
Extraction speed 2.7 X
Track quality 99.9 %
Test CRC A17080D3
Copy CRC A17080D3
Track not present in AccurateRip database
Copy OK
Track 3
Filename C:\EAC rips\03 - Untitled.wav
Pre-gap length 0:00:03.55
Peak level 83.6 %
Extraction speed 3.2 X
Track quality 100.0 %
Test CRC 148DAEB4
Copy CRC 148DAEB4
Track not present in AccurateRip database
Copy OK
Track 4
Filename C:\EAC rips\04 - Untitled.wav
Pre-gap length 0:00:03.70
Peak level 95.6 %
Extraction speed 3.5 X
Track quality 100.0 %
Test CRC 93B9A577
Copy CRC 93B9A577
Track not present in AccurateRip database
Copy OK
Track 5
Filename C:\EAC rips\05 - Untitled.wav
Pre-gap length 0:00:02.33
Peak level 89.2 %
Extraction speed 3.7 X
Track quality 100.0 %
Test CRC 7BEBE70D
Copy CRC 7BEBE70D
Track not present in AccurateRip database
Copy OK
Track 6
Filename C:\EAC rips\06 - Untitled.wav
Pre-gap length 0:00:04.51
Peak level 91.4 %
Extraction speed 4.0 X
Track quality 100.0 %
Test CRC 78114EA0
Copy CRC 78114EA0
Track not present in AccurateRip database
Copy OK
Track 7
Filename C:\EAC rips\07 - Untitled.wav
Pre-gap length 0:00:03.51
Peak level 63.5 %
Extraction speed 3.4 X
Track quality 99.9 %
Test CRC 1D9096B7
Copy CRC 1D9096B7
Track not present in AccurateRip database
Copy OK
Track 8
Filename C:\EAC rips\08 - Untitled.wav
Pre-gap length 0:00:04.22
Peak level 93.4 %
Extraction speed 4.3 X
Track quality 100.0 %
Test CRC 5DEBDD98
Copy CRC 5DEBDD98
Track not present in AccurateRip database
Copy OK
None of the tracks are present in the AccurateRip database
No errors occurred
End of status report
---- CUETools DB Plugin V2.1.4
[CTDB TOCID: NsMFxfGLfzsjn9Kz7FoeIpz4MPA-] disk not present in database
Submit result: NsMFxfGLfzsjn9Kz7FoeIpz4MPA- has been uploaded
==== Log checksum F783766780892F4905B425333D9C2F6A3BC29F9F36B4AB6EB232CB08322CAD1E ====
 
Содержание индексной карты (.CUE)
REM GENRE Jazz
REM DATE 2002
REM DISCID 690DAC08
REM COMMENT "ExactAudioCopy v1.0b3"
PERFORMER "Hans Koch, Julien Pinol, Ramon Lopez"
TITLE "Ellipses"
FILE "01 - Untitled.wav" WAVE
TRACK 01 AUDIO
TITLE "Untitled"
PERFORMER "Hans Koch, Julien Pinol, Ramon Lopez"
INDEX 01 00:00:00
TRACK 02 AUDIO
TITLE "Untitled"
PERFORMER "Hans Koch, Julien Pinol, Ramon Lopez"
INDEX 00 09:01:70
FILE "02 - Untitled.wav" WAVE
INDEX 01 00:00:00
TRACK 03 AUDIO
TITLE "Untitled"
PERFORMER "Hans Koch, Julien Pinol, Ramon Lopez"
INDEX 00 09:54:16
FILE "03 - Untitled.wav" WAVE
INDEX 01 00:00:00
TRACK 04 AUDIO
TITLE "Untitled"
PERFORMER "Hans Koch, Julien Pinol, Ramon Lopez"
INDEX 00 06:39:28
FILE "04 - Untitled.wav" WAVE
INDEX 01 00:00:00
TRACK 05 AUDIO
TITLE "Untitled"
PERFORMER "Hans Koch, Julien Pinol, Ramon Lopez"
INDEX 00 06:39:34
FILE "05 - Untitled.wav" WAVE
INDEX 01 00:00:00
TRACK 06 AUDIO
TITLE "Untitled"
PERFORMER "Hans Koch, Julien Pinol, Ramon Lopez"
INDEX 00 05:24:71
FILE "06 - Untitled.wav" WAVE
INDEX 01 00:00:00
TRACK 07 AUDIO
TITLE "Untitled"
PERFORMER "Hans Koch, Julien Pinol, Ramon Lopez"
INDEX 00 08:39:49
FILE "07 - Untitled.wav" WAVE
INDEX 01 00:00:00
TRACK 08 AUDIO
TITLE "Untitled"
PERFORMER "Hans Koch, Julien Pinol, Ramon Lopez"
INDEX 00 04:42:63
FILE "08 - Untitled.wav" WAVE
INDEX 01 00:00:00
Any questions -> support@pro-jazz.com. По всем вопросам пишите -> support@pro-jazz.com
14:57
203
Нет комментариев. Ваш будет первым!