Поиск

(Avant-Garde Jazz, Free Improvisation) Leroy Jenkins - Themes & Improvisations On The Blues - 1994, FLAC (tracks+.cue), lossless

(Avant-Garde Jazz, Free Improvisation) Leroy Jenkins - Themes & Improvisations On The Blues - 1994, FLAC (tracks+.cue), lossless
Треклист:
♦ Leroy Jenkins - Themes & Improvisations On The Blues ♦
Жанр: Avant-Garde Jazz, Free Improvisation
Страна-производитель диска: USA
Год издания: 1994
Издатель (лейбл): Composers Recordings / CRIeXchange
Номер по каталогу: CD663
Аудиокодек: FLAC (*.flac)
Тип рипа: tracks+.cue
Битрейт аудио: lossless
Продолжительность: 01:00:40
Источник (релизер): Рип с диска.
Наличие сканов в содержимом раздачи: да
Треклист:
01. Themes & Improvisations on the Blues [18:31]
02. Panorama 1 [13:33]
03. Off Duty Dryed [13:04]
04. Monkey on the Dragon [15:31]
 
Лог создания рипа
Exact Audio Copy V1.0 beta 3 from 29. August 2011
EAC extraction logfile from 17. June 2013, 15:59
Leroy Jenkins / Themes & Improvisations on the Blues
Used drive : Optiarc DVD RW AD-5200A Adapter: 0 ID: 0
Read mode : Secure
Utilize accurate stream : Yes
Defeat audio cache : Yes
Make use of C2 pointers : No
Read offset correction : 48
Overread into Lead-In and Lead-Out : No
Fill up missing offset samples with silence : Yes
Delete leading and trailing silent blocks : No
Null samples used in CRC calculations : Yes
Used interface : Native Win32 interface for Win NT & 2000
Gap handling : Appended to previous track
Used output format : User Defined Encoder
Selected bitrate : 128 kBit/s
Quality : High
Add ID3 tag : No
Command line compressor : C:\Program Files\Exact Audio Copy\Flac\flac.exe
Additional command line options : -V -8 -T "Genre=%genre%" -T "Artist=%artist%" -T "Title=%title%" -T "Album=%albumtitle%" -T "Date=%year%" -T "Tracknumber=%tracknr%" -T "Comment=%comment%" %source%
TOC of the extracted CD
Track | Start | Length | Start sector | End sector
---------------------------------------------------------
1 | 0:00.00 | 18:31.50 | 0 | 83374
2 | 18:31.50 | 13:33.25 | 83375 | 144374
3 | 32:05.00 | 13:04.00 | 144375 | 203174
4 | 45:09.00 | 15:31.50 | 203175 | 273049
Track 1
Filename F:\1994.Leroy Jenkins - Themes & Improvisations On The Blues\01. Themes & Improvisations on the Blues.wav
Pre-gap length 0:00:02.00
Peak level 86.6 %
Extraction speed 3.0 X
Track quality 100.0 %
Test CRC 88E3F72E
Copy CRC 88E3F72E
Cannot be verified as accurate (confidence 2) [A7C96D3B], AccurateRip returned [07BD6EDE] (AR v2)
Copy OK
Track 2
Filename F:\1994.Leroy Jenkins - Themes & Improvisations On The Blues\02. Panorama 1.wav
Pre-gap length 0:00:00.23
Peak level 100.0 %
Extraction speed 3.7 X
Track quality 100.0 %
Test CRC FAC25069
Copy CRC FAC25069
Cannot be verified as accurate (confidence 2) [A7275077], AccurateRip returned [7E76E1BB] (AR v2)
Copy OK
Track 3
Filename F:\1994.Leroy Jenkins - Themes & Improvisations On The Blues\03. Off Duty Dryed.wav
Pre-gap length 0:00:01.05
Peak level 100.0 %
Extraction speed 3.8 X
Track quality 100.0 %
Test CRC 243FD8AF
Copy CRC 243FD8AF
Cannot be verified as accurate (confidence 2) [E488E908], AccurateRip returned [97426481] (AR v2)
Copy OK
Track 4
Filename F:\1994.Leroy Jenkins - Themes & Improvisations On The Blues\04. Monkey on the Dragon.wav
Peak level 100.0 %
Extraction speed 3.9 X
Track quality 100.0 %
Test CRC 3DD68BB4
Copy CRC 3DD68BB4
Track not present in AccurateRip database
Copy OK
3 трек(и) не удалось проверить на точность
1 трек(и) не содержатся в базе AccurateRip
No tracks could be verified as accurate
You may have a different pressing from the one(s) in the database
No errors occurred
End of status report
==== Log checksum C986CD2B2309229FAAD398C5E7767AB89A89258E5BE4797CFE0D4C8DB3C2F8DC ====
 
Содержание индексной карты (.CUE)
REM GENRE Jazz
REM DATE 1994
REM DISCID 260E3804
REM COMMENT "ExactAudioCopy v1.0b3"
PERFORMER "Leroy Jenkins"
TITLE "Themes & Improvisations on the Blues"
FILE "01. Themes & Improvisations on the Blues.wav" WAVE
TRACK 01 AUDIO
TITLE "Themes & Improvisations on the Blues"
PERFORMER "Leroy Jenkins"
INDEX 01 00:00:00
TRACK 02 AUDIO
TITLE "Panorama 1"
PERFORMER "Leroy Jenkins"
INDEX 00 18:31:27
FILE "02. Panorama 1.wav" WAVE
INDEX 01 00:00:00
TRACK 03 AUDIO
TITLE "Off Duty Dryed"
PERFORMER "Leroy Jenkins"
INDEX 00 13:32:20
FILE "03. Off Duty Dryed.wav" WAVE
INDEX 01 00:00:00
FILE "04. Monkey on the Dragon.wav" WAVE
TRACK 04 AUDIO
TITLE "Monkey on the Dragon"
PERFORMER "Leroy Jenkins"
INDEX 01 00:00:00
 
Состав
Personnel: Leroy Jenkins - violin, Henry Threadgill - fl, Don Byron - cl, Marty Ehrlich - Bcl, Jeff Hoyer - tb, Vincent Chancey - French horn, Janet Grice - bassoon, Frunk Gordon - tp, Myra Melford - p, Ron Lawrence - viola, Mary Wooton - cello, Lindsey Horner - b.
14:57
611
Нет комментариев. Ваш будет первым!