Вы используете незарегистрированную версию компонента "Вкладки"!

Поиск

(Free Improvisation) Han Bennink + Derek Bailey - Post Improvisation 1: When We're Smilin - 1999, APE (image+.cue), lossless

(Free Improvisation) Han Bennink + Derek Bailey - Post Improvisation 1: When We're Smilin - 1999, APE (image+.cue), lossless
Треклист:
Han Bennink + Derek Bailey / Post Improvisation 1: When We're Smilin
Жанр: Free Improvisation
Страна-производитель диска: Великобритания
Год издания диска: 1999
Издатель (лейбл): Incus
Номер по каталогу: CD34
Страна: Нидерланды, Великобритания
Аудиокодек: APE (*.ape)
Тип рипа: image+.cue
Битрейт аудио: lossless
Продолжительность: 41:33
Источник (релизер): сеть (FuckDeBoere)
Наличие сканов в содержимом раздачи: нет
Треклист:
1 Untitled 2:44
2 Untitled 4:40
3 Untitled 3:17
4 Untitled 14:14
5 Untitled 6:49
6 Untitled 9:44
The playing is more or less continous but the following sections are indicated
 
Содержание индексной карты (.CUE)
PERFORMER "Derek Bailey + Han Bennink"
TITLE "Post improvisation 1 when we're smiling"
FILE "CDImage.ape" WAVE
TRACK 01 AUDIO
TITLE "No titles"
PERFORMER "Derek Bailey + Han Bennink"
INDEX 01 00:00:00
TRACK 02 AUDIO
TITLE "No titles"
PERFORMER "Derek Bailey + Han Bennink"
INDEX 00 02:36:27
INDEX 01 02:38:27
TRACK 03 AUDIO
TITLE "No titles"
PERFORMER "Derek Bailey + Han Bennink"
INDEX 00 07:12:36
INDEX 01 07:14:36
TRACK 04 AUDIO
TITLE "No titles"
PERFORMER "Derek Bailey + Han Bennink"
INDEX 01 10:27:38
TRACK 05 AUDIO
TITLE "No titles"
PERFORMER "Derek Bailey + Han Bennink"
INDEX 01 24:42:16
TRACK 06 AUDIO
TITLE "No titles"
PERFORMER "Derek Bailey + Han Bennink"
INDEX 00 31:47:15
INDEX 01 31:49:15
 
Лог проверки качества
AUDIOCHECKER v2.0 beta (build 457) - by Dester - opdester@freemail.hu
~~~~~~~~~~~~~~~~~~~~~~~~~~~~~~~~~~
-=== DO NOT EDIT THIS FILE! ===-
Path: ...\Derek Bailey + Han Bennink-Post improvisation 1 when we're smiling
1 -=- Derek Bailey + Han Bennink-Post improvisation 1 when we're smiling.ape -=- CDDA (99%)
46344116
 
Состав
Han Bennink, drums + percussion.
Derek Bailey, guitar.
По всем вопросам пишите личное сообщение пользователю M0p94ok.
16:30
155
Нет комментариев. Ваш будет первым!