Вы используете незарегистрированную версию компонента "Вкладки"!

Поиск

(Free Improvisation) Derek Bailey + Han Bennink - Post Improvisation 2: Air Mail Special - 1999, APE (image+.cue), lossless

(Free Improvisation) Derek Bailey + Han Bennink - Post Improvisation 2: Air Mail Special - 1999, APE (image+.cue), lossless
Треклист:
Derek Bailey + Han Bennink / Post Improvisation 2: Air Mail Special
Жанр: Free Improvisation
Страна-производитель диска: Великобритания
Год издания диска: 1999
Издатель (лейбл): Incus
Номер по каталогу: CD35
Страна: Великобритания, Нидерланды
Аудиокодек: APE (*.ape)
Тип рипа: image+.cue
Битрейт аудио: lossless
Продолжительность: 42:02
Источник (релизер): сеть (FuckDeBoere)
Наличие сканов в содержимом раздачи: нет
Треклист:
1 Untitled 4:08
2 Untitled 1:00
3 Untitled 1:19
4 Untitled 1:21
5 Untitled 2:57
6 Untitled 3:14
7 Untitled 2:45
8 Untitled 1:31
9 Untitled 2:03
10 Untitled 5:51
11 Untitled 4:29
12 Untitled 6:49
13 Untitled 4:29
The Playing is more or less continuous, but the following sections are indicated
 
Содержание индексной карты (.CUE)
PERFORMER "Derek Bailey + Han Bennink"
TITLE "Post improvisation 2 air mail special"
FILE "CDImage.ape" WAVE
TRACK 01 AUDIO
TITLE "No titles"
PERFORMER "Derek Bailey + Han Bennink"
INDEX 01 00:00:00
TRACK 02 AUDIO
TITLE "No titles"
PERFORMER "Derek Bailey + Han Bennink"
INDEX 01 04:08:09
TRACK 03 AUDIO
TITLE "No titles"
PERFORMER "Derek Bailey + Han Bennink"
INDEX 01 05:08:20
TRACK 04 AUDIO
TITLE "No titles"
PERFORMER "Derek Bailey + Han Bennink"
INDEX 01 06:27:39
TRACK 05 AUDIO
TITLE "No titles"
PERFORMER "Derek Bailey + Han Bennink"
INDEX 01 07:49:06
TRACK 06 AUDIO
TITLE "No titles"
PERFORMER "Derek Bailey + Han Bennink"
INDEX 01 10:47:05
TRACK 07 AUDIO
TITLE "No titles"
PERFORMER "Derek Bailey + Han Bennink"
INDEX 01 14:01:27
TRACK 08 AUDIO
TITLE "No titles"
PERFORMER "Derek Bailey + Han Bennink"
INDEX 01 16:46:73
TRACK 09 AUDIO
TITLE "No titles"
PERFORMER "Derek Bailey + Han Bennink"
INDEX 01 18:18:63
TRACK 10 AUDIO
TITLE "No titles"
PERFORMER "Derek Bailey + Han Bennink"
INDEX 01 20:22:32
TRACK 11 AUDIO
TITLE "No titles"
PERFORMER "Derek Bailey + Han Bennink"
INDEX 01 26:13:66
TRACK 12 AUDIO
TITLE "No titles"
PERFORMER "Derek Bailey + Han Bennink"
INDEX 01 30:43:01
TRACK 13 AUDIO
TITLE "No titles"
PERFORMER "Derek Bailey + Han Bennink"
INDEX 01 37:32:54
 
Лог проверки качества
AUDIOCHECKER v2.0 beta (build 457) - by Dester - opdester@freemail.hu
~~~~~~~~~~~~~~~~~~~~~~~~~~~~~~~~~~
-=== DO NOT EDIT THIS FILE! ===-
Path: ...\Derek Bailey + Han Bennink-Post improvisation 2 air mail special
1 -=- Derek Bailey + Han Bennink-Post improvisation 2 air mail special.ape -=- CDDA (100%)
261649572
 
Состав
Derek Bailey, guitar.
Han Bennink, drums + percussion.
Any questions -> support@pro-jazz.com. По всем вопросам пишите -> support@pro-jazz.com
16:31
144
Нет комментариев. Ваш будет первым!