Вы используете незарегистрированную версию компонента "Вкладки"!

Поиск

(Free Improvisation, Free Jazz) William Parker & Hamid Drake - First Communion + Piercing the Veil. volume 1 complete - 2007, FLAC (tracks), lossless

(Free Improvisation, Free Jazz) William Parker & Hamid Drake - First Communion + Piercing the Veil. volume 1 complete - 2007, FLAC (tracks), lossless
Треклист:
William Parker & Hamid Drake - First Communion + Piercing the Veil
volume 1 complete
Жанр: Free Improvisation, Free Jazz
Год выпуска диска: 2007
Производитель диска: AUM Fidelity (AUM039/40)
Источник: вот.сиди (Avarance)
Аудио кодек: FLAC
Тип рипа: tracks+.cue
Битрейт аудио: lossless
Продолжительность: 2:12:43
Трэклист:
1 Black Cherry 2:42
2 Chatima 6:17
3 Heavenly Walk 3:44
4 Japeru 4:41
5 Nur al Anwar 3:56
6 Piercing the Veil 2:50
7 Loom Song 6:35
8 Chaung Tzu's Dream 8:45
9 Bodies Die/Spirits Live 4:47
10 First Communion, Pt. 1 13:20
11 First Communion, Pt. 1 7:12
12 First Communion, Pt. 2 13:51
13 First Communion, Pt. 3 20:01
14 First Communion, Pt. 3 15:12
15 First Communion, Pt. 3 18:42
Hamid Drake: drums, tabla, frame drum, bells
William Parker: bass, balafon, shakuhachi, bombard, dumbek, slit drum

First Communion recorded LIVE! by Christina Schwartz on April 1, 2000 at AUM HQ in Brooklyn
Piercing The Veil recorded by Michael Marciano on April 3, 2000 at Systems Two Studio in Brooklyn
 
Лог создания рипа
Exact Audio Copy V1.0 beta 3 from 29. August 2011
EAC extraction logfile from 10. June 2012, 7:32
William Parker & Hamid Drake / First Communion + Piercing the Veil: Volume 1 Complete
Used drive : HL-DT-STDVDRAM GT30N Adapter: 0 ID: 0
Read mode : Secure
Utilize accurate stream : Yes
Defeat audio cache : Yes
Make use of C2 pointers : No
Read offset correction : 103
Overread into Lead-In and Lead-Out : No
Fill up missing offset samples with silence : Yes
Delete leading and trailing silent blocks : No
Null samples used in CRC calculations : Yes
Used interface : Native Win32 interface for Win NT & 2000
Gap handling : Appended to previous track
Used output format : User Defined Encoder
Selected bitrate : 320 kBit/s
Quality : High
Add ID3 tag : No
Command line compressor : C:\Program Files (x86)\Exact Audio Copy\Flac\flac.exe
Additional command line options : -8 -V -T "ARTIST=%artist%" -T "TITLE=%title%" -T "ALBUM=%albumtitle%" -T "DATE=%year%" -T "TRACKNUMBER=%tracknr%" -T "GENRE=%genre%" -T "PERFORMER=%albuminterpret%" -T "COMPOSER=%composer%" %haslyrics%--tag-from-file=LYRICS="%lyricsfile%"%haslyrics% -T "ALBUMARTIST=%albumartist%" -T "DISCNUMBER=%cdnumber%" -T "TOTALDISCS=%totalcds%" -T "TOTALTRACKS=%numtracks%" -T "COMMENT=%comment%" %source% -o %dest%
TOC of the extracted CD
Track | Start | Length | Start sector | End sector
---------------------------------------------------------
1 | 0:00.00 | 2:42.60 | 0 | 12209
2 | 2:42.60 | 6:17.34 | 12210 | 40518
3 | 9:00.19 | 3:44.41 | 40519 | 57359
4 | 12:44.60 | 4:41.31 | 57360 | 78465
5 | 17:26.16 | 3:56.24 | 78466 | 96189
6 | 21:22.40 | 2:50.65 | 96190 | 109004
7 | 24:13.30 | 6:35.54 | 109005 | 138683
8 | 30:49.09 | 8:45.00 | 138684 | 178058
9 | 39:34.09 | 4:47.27 | 178059 | 199610
10 | 44:21.36 | 13:20.04 | 199611 | 259614
11 | 57:41.40 | 7:12.60 | 259615 | 292074
Track 1
Filename C:\EACRips\01 - Black Cherry.wav
Pre-gap length 0:00:02.00
Peak level 98.8 %
Extraction speed 2.5 X
Track quality 100.0 %
Test CRC 38DB54FF
Copy CRC 38DB54FF
Accurately ripped (confidence 2) [7FBB3AE6] (AR v1)
Copy OK
Track 2
Filename C:\EACRips\02 - Chatima.wav
Pre-gap length 0:00:02.00
Peak level 98.8 %
Extraction speed 2.8 X
Track quality 99.9 %
Test CRC 0AB291C6
Copy CRC 0AB291C6
Track not present in AccurateRip database
Copy OK
Track 3
Filename C:\EACRips\03 - Heavenly Walk.wav
Pre-gap length 0:00:02.00
Peak level 98.8 %
Extraction speed 3.3 X
Track quality 100.0 %
Test CRC CF7C3CCF
Copy CRC CF7C3CCF
Accurately ripped (confidence 2) [EC87BD59] (AR v1)
Copy OK
Track 4
Filename C:\EACRips\04 - Japeru.wav
Pre-gap length 0:00:02.00
Peak level 98.8 %
Extraction speed 3.6 X
Track quality 100.0 %
Test CRC 2C45FB0D
Copy CRC 2C45FB0D
Track not present in AccurateRip database
Copy OK
Track 5
Filename C:\EACRips\05 - Nur al anwar.wav
Pre-gap length 0:00:02.00
Peak level 100.0 %
Extraction speed 3.7 X
Track quality 100.0 %
Test CRC 5DEF5770
Copy CRC 5DEF5770
Track not present in AccurateRip database
Copy OK
Track 6
Filename C:\EACRips\06 - Piercing the Veil.wav
Pre-gap length 0:00:02.00
Peak level 98.8 %
Extraction speed 3.7 X
Track quality 100.0 %
Test CRC 08025833
Copy CRC 08025833
Track not present in AccurateRip database
Copy OK
Track 7
Filename C:\EACRips\07 - Loom Song.wav
Pre-gap length 0:00:02.00
Peak level 98.8 %
Extraction speed 3.8 X
Track quality 99.9 %
Test CRC 5A83F463
Copy CRC 5A83F463
Track not present in AccurateRip database
Copy OK
Track 8
Filename C:\EACRips\08 - Chaung Tzu's Dream.wav
Pre-gap length 0:00:02.00
Peak level 98.8 %
Extraction speed 4.9 X
Track quality 100.0 %
Test CRC C4988D26
Copy CRC C4988D26
Track not present in AccurateRip database
Copy OK
Track 9
Filename C:\EACRips\09 - Bodies Die,Spirits Live.wav
Pre-gap length 0:00:02.00
Peak level 98.8 %
Extraction speed 4.9 X
Track quality 100.0 %
Test CRC 55978D88
Copy CRC 55978D88
Track not present in AccurateRip database
Copy OK
Track 10
Filename C:\EACRips\10 - First Communion I.wav
Pre-gap length 0:00:20.00
Peak level 97.7 %
Extraction speed 5.7 X
Track quality 100.0 %
Test CRC F81EBD5D
Copy CRC F81EBD5D
Track not present in AccurateRip database
Copy OK
Track 11
Filename C:\EACRips\11 - First Communion I.wav
Peak level 97.7 %
Extraction speed 5.8 X
Track quality 100.0 %
Test CRC CD4F1B56
Copy CRC CD4F1B56
Accurately ripped (confidence 2) [6DBF7419] (AR v1)
Copy OK
3 track(s) accurately ripped
8 track(s) not present in the AccurateRip database
Some tracks could not be verified as accurate
No errors occurred
End of status report
---- CUETools DB Plugin V2.1.3
[CTDB TOCID: HVw.KOpkbIDEJ6uyuDAfvlR.bVI-] disk not present in database, Submit result: HVw.KOpkbIDEJ6uyuDAfvlR.bVI- has been uploaded
==== Log checksum 22F941FA66FB5D53495ECA65CB59A6B0C949F69FC4B972062ABDC195B9EBF53C ====


Exact Audio Copy V1.0 beta 3 from 29. August 2011
EAC extraction logfile from 10. June 2012, 8:23
William Parker & Hamid Drake / First Communion + Piercing the Veil: Volume 1 Complete
Used drive : HL-DT-STDVDRAM GT30N Adapter: 0 ID: 0
Read mode : Secure
Utilize accurate stream : Yes
Defeat audio cache : Yes
Make use of C2 pointers : No
Read offset correction : 103
Overread into Lead-In and Lead-Out : No
Fill up missing offset samples with silence : Yes
Delete leading and trailing silent blocks : No
Null samples used in CRC calculations : Yes
Used interface : Native Win32 interface for Win NT & 2000
Gap handling : Appended to previous track
Used output format : User Defined Encoder
Selected bitrate : 320 kBit/s
Quality : High
Add ID3 tag : No
Command line compressor : C:\Program Files (x86)\Exact Audio Copy\Flac\flac.exe
Additional command line options : -8 -V -T "ARTIST=%artist%" -T "TITLE=%title%" -T "ALBUM=%albumtitle%" -T "DATE=%year%" -T "TRACKNUMBER=%tracknr%" -T "GENRE=%genre%" -T "PERFORMER=%albuminterpret%" -T "COMPOSER=%composer%" %haslyrics%--tag-from-file=LYRICS="%lyricsfile%"%haslyrics% -T "ALBUMARTIST=%albumartist%" -T "DISCNUMBER=%cdnumber%" -T "TOTALDISCS=%totalcds%" -T "TOTALTRACKS=%numtracks%" -T "COMMENT=%comment%" %source% -o %dest%
TOC of the extracted CD
Track | Start | Length | Start sector | End sector
---------------------------------------------------------
1 | 0:00.00 | 13:51.33 | 0 | 62357
2 | 13:51.33 | 20:01.48 | 62358 | 152480
3 | 33:53.06 | 15:12.35 | 152481 | 220915
4 | 49:05.41 | 18:42.64 | 220916 | 305129
Track 1
Filename C:\EACRips\01 - First Communion II.wav
Pre-gap length 0:00:02.00
Peak level 97.7 %
Extraction speed 3.3 X
Track quality 100.0 %
Test CRC AA2DD405
Copy CRC AA2DD405
Track not present in AccurateRip database
Copy OK
Track 2
Filename C:\EACRips\02 - First Communion III.wav
Peak level 97.7 %
Extraction speed 4.4 X
Track quality 100.0 %
Test CRC 345349E6
Copy CRC 345349E6
Accurately ripped (confidence 2) [7B1932A6] (AR v1)
Copy OK
Track 3
Filename C:\EACRips\03 - First Communion III.wav
Peak level 97.7 %
Extraction speed 5.1 X
Track quality 100.0 %
Test CRC A5C806F4
Copy CRC A5C806F4
Accurately ripped (confidence 2) [8D7D02D4] (AR v1)
Copy OK
Track 4
Filename C:\EACRips\04 - First Communion III.wav
Peak level 97.7 %
Extraction speed 5.8 X
Track quality 100.0 %
Test CRC F64E47A2
Copy CRC F64E47A2
Track not present in AccurateRip database
Copy OK
2 track(s) accurately ripped
2 track(s) not present in the AccurateRip database
Some tracks could not be verified as accurate
No errors occurred
End of status report
---- CUETools DB Plugin V2.1.3
[CTDB TOCID: tJicf7.ufI2.6v6scqZu9xSRQ.0-] disk not present in database, Submit result: tJicf7.ufI2.6v6scqZu9xSRQ.0- has been uploaded
==== Log checksum 1FC57E7E1339A9BD7BB1ED841EBE0C38997356FBA7B5052C64B6AB7582E82581 ====
 
Содержание индексной карты (.CUE)
REM GENRE Jazz
REM DATE 2007
REM DISCID 980F360B
REM COMMENT "ExactAudioCopy v1.0b3"
PERFORMER "William Parker & Hamid Drake"
TITLE "First Communion + Piercing the Veil: Volume 1 Complete"
FILE "01 - Black Cherry.wav" WAVE
TRACK 01 AUDIO
TITLE "Black Cherry"
PERFORMER "William Parker & Hamid Drake"
INDEX 01 00:00:00
TRACK 02 AUDIO
TITLE "Chatima"
PERFORMER "William Parker & Hamid Drake"
INDEX 00 02:40:60
FILE "02 - Chatima.wav" WAVE
INDEX 01 00:00:00
TRACK 03 AUDIO
TITLE "Heavenly Walk"
PERFORMER "William Parker & Hamid Drake"
INDEX 00 06:15:34
FILE "03 - Heavenly Walk.wav" WAVE
INDEX 01 00:00:00
TRACK 04 AUDIO
TITLE "Japeru"
PERFORMER "William Parker & Hamid Drake"
INDEX 00 03:42:41
FILE "04 - Japeru.wav" WAVE
INDEX 01 00:00:00
TRACK 05 AUDIO
TITLE "Nur al anwar"
PERFORMER "William Parker & Hamid Drake"
INDEX 00 04:39:31
FILE "05 - Nur al anwar.wav" WAVE
INDEX 01 00:00:00
TRACK 06 AUDIO
TITLE "Piercing the Veil"
PERFORMER "William Parker & Hamid Drake"
INDEX 00 03:54:24
FILE "06 - Piercing the Veil.wav" WAVE
INDEX 01 00:00:00
TRACK 07 AUDIO
TITLE "Loom Song"
PERFORMER "William Parker & Hamid Drake"
INDEX 00 02:48:65
FILE "07 - Loom Song.wav" WAVE
INDEX 01 00:00:00
TRACK 08 AUDIO
TITLE "Chaung Tzu's Dream"
PERFORMER "William Parker & Hamid Drake"
INDEX 00 06:33:54
FILE "08 - Chaung Tzu's Dream.wav" WAVE
INDEX 01 00:00:00
TRACK 09 AUDIO
TITLE "Bodies Die/Spirits Live"
PERFORMER "William Parker & Hamid Drake"
INDEX 00 08:43:00
FILE "09 - Bodies Die,Spirits Live.wav" WAVE
INDEX 01 00:00:00
TRACK 10 AUDIO
TITLE "First Communion I "
PERFORMER "William Parker & Hamid Drake"
INDEX 00 04:27:27
FILE "10 - First Communion I.wav" WAVE
INDEX 01 00:00:00
FILE "11 - First Communion I.wav" WAVE
TRACK 11 AUDIO
TITLE "First Communion I "
PERFORMER "William Parker & Hamid Drake"
INDEX 01 00:00:00


REM GENRE Jazz
REM DATE 2007
REM DISCID 300FE404
REM COMMENT "ExactAudioCopy v1.0b3"
PERFORMER "William Parker & Hamid Drake"
TITLE "First Communion + Piercing the Veil: Volume 1 Complete"
FILE "01 - First Communion II.wav" WAVE
TRACK 01 AUDIO
TITLE "First Communion II"
PERFORMER "William Parker & Hamid Drake"
INDEX 01 00:00:00
FILE "02 - First Communion III.wav" WAVE
TRACK 02 AUDIO
TITLE "First Communion III"
PERFORMER "William Parker & Hamid Drake"
INDEX 01 00:00:00
FILE "03 - First Communion III.wav" WAVE
TRACK 03 AUDIO
TITLE "First Communion III"
PERFORMER "William Parker & Hamid Drake"
INDEX 01 00:00:00
FILE "04 - First Communion III.wav" WAVE
TRACK 04 AUDIO
TITLE "First Communion III"
PERFORMER "William Parker & Hamid Drake"
INDEX 01 00:00:00
William Parker & Hamid Drake - volume 2: Summer Snow
По всем вопросам пишите личное сообщение пользователю M0p94ok.
19:15
163
Нет комментариев. Ваш будет первым!