Вы используете незарегистрированную версию компонента "Вкладки"!

Поиск

(AvantGarde, Free Jazz) Mujician - Birdman - 1996, APE (image+.cue), lossless

(AvantGarde, Free Jazz) Mujician - Birdman - 1996, APE (image+.cue), lossless
Треклист:
Mujician - Birdman
Жанр: AvantGarde, Free Jazz
Год выпуска диска: 1996
Производитель диска: Cuneiform Records
Аудио кодек: APE
Тип рипа: image+.cue
Битрейт аудио: lossless
Продолжительность: 75'02''
Трэклист:
1. Birdman - 28'19''
2. Shubunkins - 31'27''
3. The Hands Are Just Shadows - 16'10''
Доп. информация: Paul Dunmall (alto saxophone, tenor saxophone); Keith Tippett (piano, wood block, chimes); Paul Rogers (double bass); Tony Levin (drums, percussion)
 
EAC LOG
Exact Audio Copy V0.99 prebeta 4 from 23. January 2008
Отчёт EAC об извлечении, выполненном 23. февраля 2010, 23:18
Mujician / Birdman
Дисковод: TSSTcorpCDDVDW SH-S203D Adapter: 3 ID: 0
Режим чтения : Достоверность
Использование точного потока : Да
Отключение кэша аудио : Да
Использование указателей C2 : Нет
Коррекция смещения при чтении : 6
Способность читать области Lead-in и Lead-out : Нет
Заполнение пропущенных сэмплов тишиной : Да
Удаление блоков с тишиной в начале и конце : Нет
При вычислениях CRC использовались нулевые сэмплы : Да
Интерфейс : Установленный внешний ASPI-интерфейс
Выходной формат : Внутренние WAV-операции
Формат сэмплов : 44.100 Гц; 16 бит; стерео
TOC извлечённого CD
Трек | Старт | Длительность | Начальный сектор | Конечный сектор
---------------------------------------------------------------------
1 | 0:00.00 | 28:18.72 | 0 | 127421
2 | 28:18.72 | 31:26.26 | 127422 | 268897
3 | 59:45.23 | 16:09.15 | 268898 | 341587
Характеристики диапазона извлечения и сообщения об ошибках
Выбранный диапазон
Имя файла E:\FOS\MISIC\Mujician\Mujician - Birdman\Mujician - Birdman.wav
Пиковый уровень 98.8 %
Качество диапазона 100.0 %
CRC копии 042B3CBD
Копирование... OK
Ошибок не произошло
Конец отчёта
Any questions -> support@pro-jazz.com. По всем вопросам пишите -> support@pro-jazz.com
19:15
105
Нет комментариев. Ваш будет первым!