Вы используете незарегистрированную версию компонента "Вкладки"!

Поиск

(Free Improvisation, Free Jazz) Wally Shoup / Toshi Makihara / Brent Arnold - Confluxus - 2004, FLAC (image+.cue), lossless

(Free Improvisation, Free Jazz) Wally Shoup / Toshi Makihara / Brent Arnold - Confluxus - 2004, FLAC (image+.cue), lossless
Треклист:
Shoup, Makihara, Arnold / Confluxus
Жанр: Free Improvisation, Free Jazz
Страна-производитель диска: UK
Год издания: 2004
Издатель (лейбл): Leo Records
Номер по каталогу: CD LR 399
Аудиокодек: FLAC (*.flac)
Тип рипа: image+.cue
Битрейт аудио: lossless
Продолжительность: 49:32
Источник (релизер): cd
Наличие сканов в содержимом раздачи: нет
Треклист:
1 Two Breaths Away 4:40
2 Joyride 5:05
3 Inside Straight 6:17
4 Convergence For Three 4:56
5 Secret Tear 5:03
6 Luminage 5:20
7 Con Fluxus 4:45
8 Double Pump 4:19
9 Conversance 3:55
10 Fault Line 5:03
 
Лог создания рипа
Exact Audio Copy V1.0 beta 2 from 29. April 2011
EAC extraction logfile from 5. November 2013, 13:30
Shoup, Makihara, Arnold / Confluxus
Used drive : Optiarc DVD RW AD-7170A Adapter: 0 ID: 0
Read mode : Secure
Utilize accurate stream : Yes
Defeat audio cache : Yes
Make use of C2 pointers : No
Read offset correction : 48
Overread into Lead-In and Lead-Out : No
Fill up missing offset samples with silence : Yes
Delete leading and trailing silent blocks : No
Null samples used in CRC calculations : Yes
Used interface : Native Win32 interface for Win NT & 2000
Used output format : User Defined Encoder
Selected bitrate : 320 kBit/s
Quality : High
Add ID3 tag : No
Command line compressor : C:\Program Files\Exact Audio Copy\Flac\flac.exe
Additional command line options : -V -8 -T "Date=%year%" -T "Genre=%genre%" %source%
TOC of the extracted CD
Track | Start | Length | Start sector | End sector
---------------------------------------------------------
1 | 0:00.00 | 4:40.40 | 0 | 21039
2 | 4:40.40 | 5:05.45 | 21040 | 43959
3 | 9:46.10 | 6:18.05 | 43960 | 72314
4 | 16:04.15 | 4:56.65 | 72315 | 94579
5 | 21:01.05 | 5:04.27 | 94580 | 117406
6 | 26:05.32 | 5:20.15 | 117407 | 141421
7 | 31:25.47 | 4:46.55 | 141422 | 162926
8 | 36:12.27 | 4:19.25 | 162927 | 182376
9 | 40:31.52 | 3:56.05 | 182377 | 200081
10 | 44:27.57 | 5:04.24 | 200082 | 222905
Range status and errors
Selected range
Filename K:\ЕАС\Shoup, Makihara, Arnold - Confluxus.wav
Peak level 99.8 %
Extraction speed 1.9 X
Range quality 99.9 %
Test CRC 1DA3AEBF
Copy CRC 1DA3AEBF
Copy OK
No errors occurred
AccurateRip summary
Track 1 accurately ripped (confidence 1) [87613CFC] (AR v1)
Track 2 accurately ripped (confidence 1) [92E6771B] (AR v1)
Track 3 accurately ripped (confidence 1) [DA0AEEDC] (AR v1)
Track 4 accurately ripped (confidence 1) [6334ADD7] (AR v1)
Track 5 accurately ripped (confidence 1) [37961C0B] (AR v1)
Track 6 accurately ripped (confidence 1) [5BEC4AD3] (AR v1)
Track 7 accurately ripped (confidence 1) [AC1D0364] (AR v1)
Track 8 accurately ripped (confidence 1) [A255D8EB] (AR v1)
Track 9 accurately ripped (confidence 1) [740B6FC3] (AR v1)
Track 10 accurately ripped (confidence 1) [26C4AD52] (AR v1)
All tracks accurately ripped
End of status report
==== Log checksum 365BD4D661EDC1DF57819C676E1681CD97C488EC8123BB43B8382CDCEFFDC3AE ====
 
Содержание индексной карты (.CUE)
REM GENRE Jazz
REM DATE 2004
REM DISCID A00B9C0A
REM COMMENT "ExactAudioCopy v1.0b2"
PERFORMER "Shoup, Makihara, Arnold"
TITLE "Confluxus"
FILE "Shoup, Makihara, Arnold - Confluxus.flac" WAVE
TRACK 01 AUDIO
TITLE "Two Breaths Away"
PERFORMER "Shoup, Makihara, Arnold"
ISRC 000000000000
FLAGS DCP
INDEX 01 00:00:00
TRACK 02 AUDIO
TITLE "Joyride"
PERFORMER "Shoup, Makihara, Arnold"
ISRC 000000000000
FLAGS DCP
INDEX 01 04:40:40
TRACK 03 AUDIO
TITLE "Inside Straight"
PERFORMER "Shoup, Makihara, Arnold"
ISRC 000000000000
FLAGS DCP
INDEX 01 09:46:10
TRACK 04 AUDIO
TITLE "Convergence For Three"
PERFORMER "Shoup, Makihara, Arnold"
ISRC 000000000000
FLAGS DCP
INDEX 01 16:04:15
TRACK 05 AUDIO
TITLE "Secret Tear"
PERFORMER "Shoup, Makihara, Arnold"
ISRC 000000000000
FLAGS DCP
INDEX 01 21:01:05
TRACK 06 AUDIO
TITLE "Luminage"
PERFORMER "Shoup, Makihara, Arnold"
ISRC 000000000000
FLAGS DCP
INDEX 01 26:05:32
TRACK 07 AUDIO
TITLE "Con Fluxus"
PERFORMER "Shoup, Makihara, Arnold"
ISRC 000000000000
FLAGS DCP
INDEX 01 31:25:47
TRACK 08 AUDIO
TITLE "Double Pump"
PERFORMER "Shoup, Makihara, Arnold"
ISRC 000000000000
FLAGS DCP
INDEX 01 36:12:27
TRACK 09 AUDIO
TITLE "Conversance"
PERFORMER "Shoup, Makihara, Arnold"
ISRC 000000000000
FLAGS DCP
INDEX 01 40:31:52
TRACK 10 AUDIO
TITLE "Fault Line"
PERFORMER "Shoup, Makihara, Arnold"
ISRC 000000000000
FLAGS DCP
INDEX 01 44:27:57
Доп. информация: Recorded on July 26, 2003.
 
Об альбоме (сборнике)
Is anyone else under the impression that Leo Feigin replaced Ivo Perelman with Wally Shoup in his roster? Both saxophonists display the same kind of vital energy verging on the unbearably direct, and both have lined up album after album for Leo Records -- Perelman in the '90s, Shoup well on his way to do the same in the 2000s. Confluxus is significantly different than the two Wally Shoup Trio recordings between which it is sandwiched. The music is less ecstatic, more nuanced, with moments of near-silent tension and a slightly more romantic form of lyricism than what Shoup has gotten us used to. Drummer Toshi Makihara was part of the album Hurricane Floyd (with Thurston Moore), and cellist Brent Arnold is a regular member of the saxophonist's main outfit Project W. So, going into this live radio session (for Jack Straw's Sonarchy Radio show in Seattle), all three of them were very much acquainted. The session takes the shape of a near-continuous 45-minute performance. It starts in the kind of high-energy free improv style you'd expect from Shoup, driven by walloping drumming and flurries of tongue-stabbed notes. The presence of the cello, instead of a bass, immediately opens up a dialogue between strings and brass, as illustrated by "Joyride." But after 20 minutes of soul-piercing playing, the trio settles down: Makihara's playing becomes fragmented, then breaks into bits and pieces, while Shoup and Arnold space out their interventions. "Secret Tear," "Luminage" and "Double Pump" get increasingly textural and sparse, without loosing a certain jazziness or becoming downright abstract. "Conversance" marks a return to high energy, only to see the group conclude with a tone poem, "Fault Line," as Shoup delivers haunting sax sobs over a cello drone.
 
Состав
Alto Saxophone – Wally Shoup
Cello – Brent Arnold
Drums – Toshi Makihara
По всем вопросам пишите личное сообщение пользователю M0p94ok.
20:03
147
Нет комментариев. Ваш будет первым!