Вы используете незарегистрированную версию компонента "Вкладки"!

Поиск

(Free Improvisation, Free Jazz) Jon Raskin Quartet (Tim Berne, Michael Formanek, Elliot Kavee) - The Bass & The Bird Pond - 1999, FLAC (tracks+.cue), lossless

(Free Improvisation, Free Jazz) Jon Raskin Quartet (Tim Berne, Michael Formanek, Elliot Kavee) - The Bass & The Bird Pond - 1999, FLAC (tracks+.cue), lossless
Треклист:
Jon Raskin Quartet / The Bass & The Bird Pond
Жанр: Free Improvisation, Free Jazz
Страна-производитель диска: US
Год издания: 1999
Издатель (лейбл): New World Records
Номер по каталогу: 80574-2
Аудиокодек: FLAC (*.flac)
Тип рипа: tracks+.cue
Битрейт аудио: lossless
Продолжительность: 68:28
Источник (релизер): whatcd
Наличие сканов в содержимом раздачи: нет
Треклист:
1 Bloodcount 21:51
2 The Third Path To No Where 17:09
3 Chapter 269, Death 8:57
4 The Bass & The Bird Pond 20:31
 
Лог создания рипа
X Lossless Decoder version 20110528 (134.0)
XLD extraction logfile from 2011-06-05 01:04:12 -0400
Jon Raskin / The Bass & The Bird Pond
Used drive : MATSHITA DVD-R UJ-8A8 (revision HA13)
Ripper mode : XLD Secure Ripper
Disable audio cache : OK for the drive with a cache less than 1375KiB
Make use of C2 pointers : NO
Read offset correction : 102
Max retry count : 100
Gap status : Analyzed, Appended
TOC of the extracted CD
Track | Start | Length | Start sector | End sector
---------------------------------------------------------
1 | 00:00:00 | 21:51:42 | 0 | 98366
2 | 21:51:42 | 17:09:24 | 98367 | 175565
3 | 39:00:66 | 08:57:51 | 175566 | 215891
4 | 47:58:42 | 20:29:35 | 215892 | 308101
AccurateRip Summary
Track 01 : OK (confidence 2)
Track 02 : OK (confidence 2)
Track 03 : OK (confidence 2)
Track 04 : OK (confidence 2)
->All tracks accurately ripped.
All Tracks
Album gain : -4.33 dB
Peak : 0.978790
Statistics
Read error : 0
Jitter error (maybe fixed) : 0
Retry sector count : 0
Damaged sector count : 0
Track 01
Filename : /Users/bikeshed/Documents/Rips/Jon Raskin (1996) - The Bass & The Bird Pond [FLAC]/01 Bloodcount.flac
Pre-gap length : 00:02:00
Track gain : -4.92 dB
Peak : 0.943848
CRC32 hash (test run) : 07B8C567
CRC32 hash : 07B8C567
CRC32 hash (skip zero) : 9B3E821B
AccurateRip signature : DA0BF1D4
->Accurately ripped! (confidence 2)
Statistics
Read error : 0
Jitter error (maybe fixed) : 0
Retry sector count : 0
Damaged sector count : 0
Track 02
Filename : /Users/bikeshed/Documents/Rips/Jon Raskin (1996) - The Bass & The Bird Pond [FLAC]/02 The Third Path To No Where.flac
Pre-gap length : 00:00:19
Track gain : -4.78 dB
Peak : 0.943970
CRC32 hash (test run) : 4EADA3FE
CRC32 hash : 4EADA3FE
CRC32 hash (skip zero) : 741EA2FD
AccurateRip signature : 8089B03B
->Accurately ripped! (confidence 2)
Statistics
Read error : 0
Jitter error (maybe fixed) : 0
Retry sector count : 0
Damaged sector count : 0
Track 03
Filename : /Users/bikeshed/Documents/Rips/Jon Raskin (1996) - The Bass & The Bird Pond [FLAC]/03 Chapter 269, Death.flac
Pre-gap length : 00:01:45
Track gain : -3.47 dB
Peak : 0.922089
CRC32 hash (test run) : 79F884CA
CRC32 hash : 79F884CA
CRC32 hash (skip zero) : D8A7FB89
AccurateRip signature : 669E44DA
->Accurately ripped! (confidence 2)
Statistics
Read error : 0
Jitter error (maybe fixed) : 0
Retry sector count : 0
Damaged sector count : 0
Track 04
Filename : /Users/bikeshed/Documents/Rips/Jon Raskin (1996) - The Bass & The Bird Pond [FLAC]/04 The Bass & The Bird Pond.flac
Pre-gap length : 00:01:45
Track gain : -2.91 dB
Peak : 0.978790
CRC32 hash (test run) : C361D981
CRC32 hash : C361D981
CRC32 hash (skip zero) : 8E3F3B11
AccurateRip signature : 1D2747DF
->Accurately ripped! (confidence 2)
Statistics
Read error : 0
Jitter error (maybe fixed) : 0
Retry sector count : 0
Damaged sector count : 0
No errors occurred
End of status report
 
Содержание индексной карты (.CUE)
TITLE "The Bass & The Bird Pond"
PERFORMER "Jon Raskin"
REM GENRE "Jazz"
REM DATE "1996"
REM DISCNUMBER 1
REM TOTALDISCS 1
REM DISCID 27100C04
REM REPLAYGAIN_ALBUM_GAIN -4.33 dB
REM REPLAYGAIN_ALBUM_PEAK 0.978790
FILE "01 Bloodcount.wav" WAVE
TRACK 01 AUDIO
TITLE "Bloodcount"
SONGWRITER "Tim Berne"
REM REPLAYGAIN_TRACK_GAIN -4.92 dB
REM REPLAYGAIN_TRACK_PEAK 0.943848
INDEX 01 00:00:00
TRACK 02 AUDIO
TITLE "The Third Path To No Where"
SONGWRITER "Jon Raskin"
REM REPLAYGAIN_TRACK_GAIN -4.78 dB
REM REPLAYGAIN_TRACK_PEAK 0.943970
INDEX 00 21:51:23
FILE "02 The Third Path To No Where.wav" WAVE
INDEX 01 00:00:00
TRACK 03 AUDIO
TITLE "Chapter 269, Death"
SONGWRITER "Jon Raskin"
REM REPLAYGAIN_TRACK_GAIN -3.47 dB
REM REPLAYGAIN_TRACK_PEAK 0.922089
INDEX 00 17:07:54
FILE "03 Chapter 269, Death.wav" WAVE
INDEX 01 00:00:00
TRACK 04 AUDIO
TITLE "The Bass & The Bird Pond"
SONGWRITER "Jon Raskin"
REM REPLAYGAIN_TRACK_GAIN -2.91 dB
REM REPLAYGAIN_TRACK_PEAK 0.978790
INDEX 00 08:56:06
FILE "04 The Bass & The Bird Pond.wav" WAVE
INDEX 01 00:00:00
Доп. информация: "The Bass & The Bird Pond" was recorded live on October 26, 1996, at Radio Valencia, San Francisco, California.
The other three compositions were recorded October 27, 1996, at Beanbenders in Berkeley, California.
 
Состав
Alto Saxophone, Sopranino Saxophone, Baritone Saxophone – Jon Raskin
Alto Saxophone – Tim Berne
Bass – Michael Formanek
Drums, Cello – Elliot Kavee
Any questions -> support@pro-jazz.com. По всем вопросам пишите -> support@pro-jazz.com
07:16
123
Нет комментариев. Ваш будет первым!