Вы используете незарегистрированную версию компонента "Вкладки"!

Поиск

(Contemporary Jazz, Avant-Garde Jazz) Toshinori Kondo & Tristan Honsinger - This, That & The Other - 1996, FLAC (tracks+.cue), lossless

(Contemporary Jazz, Avant-Garde Jazz) Toshinori Kondo & Tristan Honsinger - This, That & The Other - 1996, FLAC (tracks+.cue), lossless
Треклист:
Toshinori Kondo & Tristan Honsinger / This, That & The Other
Жанр: Contemporary Jazz, Avant-Garde Jazz
Страна-производитель диска: France
Год издания: 1996
Издатель (лейбл): Basic
Номер по каталогу: basic 50007
Страна: Japan & USA
Аудиокодек: FLAC (*.flac)
Тип рипа: tracks+.cue
Битрейт аудио: lossless
Продолжительность: 33:55
Источник: what.cd
Наличие сканов в содержимом раздачи: да
Треклист:
01. Talk [0:36]
02. La Strada [4:27]
03. Cello And Kondo [0:39]
04. Television / Pineapplesass [4:12]
05. Morehands [1:00]
06. Crazy [2:44]
07. Aveva Paura [2:33]
08. Kate's Back [2:29]
09. Jack's Field [2:29]
10. Tell Me Another Story [1:46]
11. La Rapina Della Scala [11:01]
 
Лог создания рипа
Exact Audio Copy V1.0 beta 2 from 29. April 2011
EAC extraction logfile from 8. January 2012, 11:16
Toshinori Kondo and Tristan Honsinger / This, That & The Other
Used drive : TSSTcorpCDDVDW SH-S222A Adapter: 1 ID: 0
Read mode : Secure
Utilize accurate stream : Yes
Defeat audio cache : Yes
Make use of C2 pointers : No
Read offset correction : 6
Overread into Lead-In and Lead-Out : No
Fill up missing offset samples with silence : Yes
Delete leading and trailing silent blocks : No
Null samples used in CRC calculations : Yes
Used interface : Native Win32 interface for Win NT & 2000
Gap handling : Appended to previous track
Used output format : User Defined Encoder
Selected bitrate : 896 kBit/s
Quality : High
Add ID3 tag : No
Command line compressor : C:\Tool\CD\EAC10\FLAC\FLAC.EXE
Additional command line options : -6 -V -T "ARTIST=%artist%" -T "TITLE=%title%" -T "ALBUM=%albumtitle%" -T "DATE=%year%" -T "TRACKNUMBER=%tracknr%" -T "GENRE=%genre%" -T "COMMENT=%comment%" -T "BAND=%albuminterpret%" -T "COMPOSER=%composer%" %haslyrics%--ta
TOC of the extracted CD
Track | Start | Length | Start sector | End sector
---------------------------------------------------------
1 | 0:00.00 | 0:35.57 | 0 | 2681
2 | 0:35.57 | 4:26.68 | 2682 | 22699
3 | 5:02.50 | 0:38.40 | 22700 | 25589
4 | 5:41.15 | 4:11.70 | 25590 | 44484
5 | 9:53.10 | 0:59.47 | 44485 | 48956
6 | 10:52.57 | 2:43.38 | 48957 | 61219
7 | 13:36.20 | 2:33.07 | 61220 | 72701
8 | 16:09.27 | 2:29.33 | 72702 | 83909
9 | 18:38.60 | 2:28.72 | 83910 | 95081
10 | 21:07.57 | 1:46.10 | 95082 | 103041
11 | 22:53.67 | 11:01.08 | 103042 | 152624
Track 1
Filename C:\! UPLOAD\Kondo-Honsinger - This, That & The Other (1996) [FLAC] {basic}\01 - Talk.wav
Pre-gap length 0:00:02.00
Peak level 73.8 %
Extraction speed 0.8 X
Track quality 100.0 %
Test CRC 4B371932
Copy CRC 4B371932
Track not present in AccurateRip database
Copy OK
Track 2
Filename C:\! UPLOAD\Kondo-Honsinger - This, That & The Other (1996) [FLAC] {basic}\02 - La Strada.wav
Peak level 94.4 %
Extraction speed 1.6 X
Track quality 99.9 %
Test CRC ADA6E20A
Copy CRC ADA6E20A
Track not present in AccurateRip database
Copy OK
Track 3
Filename C:\! UPLOAD\Kondo-Honsinger - This, That & The Other (1996) [FLAC] {basic}\03 - Cello and Kondo.wav
Peak level 69.2 %
Extraction speed 0.7 X
Track quality 99.7 %
Test CRC 9433066D
Copy CRC 9433066D
Track not present in AccurateRip database
Copy OK
Track 4
Filename C:\! UPLOAD\Kondo-Honsinger - This, That & The Other (1996) [FLAC] {basic}\04 - Television _ Pineapplesass.wav
Pre-gap length 0:00:03.00
Peak level 89.4 %
Extraction speed 2.0 X
Track quality 100.0 %
Test CRC 20CB2B09
Copy CRC 20CB2B09
Track not present in AccurateRip database
Copy OK
Track 5
Filename C:\! UPLOAD\Kondo-Honsinger - This, That & The Other (1996) [FLAC] {basic}\05 - Morehands.wav
Pre-gap length 0:00:02.10
Peak level 73.1 %
Extraction speed 1.4 X
Track quality 100.0 %
Test CRC C58949A6
Copy CRC C58949A6
Track not present in AccurateRip database
Copy OK
Track 6
Filename C:\! UPLOAD\Kondo-Honsinger - This, That & The Other (1996) [FLAC] {basic}\06 - Crazy.wav
Pre-gap length 0:00:02.00
Peak level 96.9 %
Extraction speed 2.0 X
Track quality 100.0 %
Test CRC DEF24893
Copy CRC DEF24893
Track not present in AccurateRip database
Copy OK
Track 7
Filename C:\! UPLOAD\Kondo-Honsinger - This, That & The Other (1996) [FLAC] {basic}\07 - Aveva Paura.wav
Pre-gap length 0:00:02.25
Peak level 82.1 %
Extraction speed 2.0 X
Track quality 100.0 %
Test CRC 2241550C
Copy CRC 2241550C
Track not present in AccurateRip database
Copy OK
Track 8
Filename C:\! UPLOAD\Kondo-Honsinger - This, That & The Other (1996) [FLAC] {basic}\08 - Kate's Back.wav
Pre-gap length 0:00:02.25
Peak level 96.7 %
Extraction speed 2.1 X
Track quality 100.0 %
Test CRC 97420BA7
Copy CRC 97420BA7
Track not present in AccurateRip database
Copy OK
Track 9
Filename C:\! UPLOAD\Kondo-Honsinger - This, That & The Other (1996) [FLAC] {basic}\09 - Jack's Field.wav
Pre-gap length 0:00:03.23
Peak level 98.4 %
Extraction speed 2.2 X
Track quality 100.0 %
Test CRC 9F1DE75F
Copy CRC 9F1DE75F
Track not present in AccurateRip database
Copy OK
Track 10
Filename C:\! UPLOAD\Kondo-Honsinger - This, That & The Other (1996) [FLAC] {basic}\10 - Tell Me Another Story.wav
Pre-gap length 0:00:03.57
Peak level 91.2 %
Extraction speed 2.1 X
Track quality 100.0 %
Test CRC 554E7F18
Copy CRC 554E7F18
Track not present in AccurateRip database
Copy OK
Track 11
Filename C:\! UPLOAD\Kondo-Honsinger - This, That & The Other (1996) [FLAC] {basic}\11 - La Rapina Della Scala.wav
Pre-gap length 0:00:02.32
Peak level 97.5 %
Extraction speed 2.9 X
Track quality 100.0 %
Test CRC 1A86C60F
Copy CRC 1A86C60F
Track not present in AccurateRip database
Copy OK
None of the tracks are present in the AccurateRip database
No errors occurred
End of status report
---- CUETools DB Plugin V2.1.2
[CTDB TOCID: 0dSYfJb2.7bc...faf5XoFANxIM-] disk not present in database, Submit result: 0dSYfJb2.7bc...faf5XoFANxIM- has been uploaded
==== Log checksum C20D324AEC7E36EF0673470A0029DA28481F6A9A37348223FB1F6F502A5AEEF0 ====
 
Содержание индексной карты (.CUE)
REM GENRE Jazz
REM DATE 1996
REM DISCID 8707F30B
REM COMMENT "ExactAudioCopy v1.0b2"
PERFORMER "Toshinori Kondo and Tristan Honsinger"
TITLE "This, That & The Other "
FILE "01 - Talk.wav" WAVE
TRACK 01 AUDIO
TITLE "Talk"
PERFORMER "Toshinori Kondo and Tristan Honsinger"
INDEX 01 00:00:00
FILE "02 - La Strada.wav" WAVE
TRACK 02 AUDIO
TITLE "La Strada"
PERFORMER "Toshinori Kondo and Tristan Honsinger"
INDEX 01 00:00:00
FILE "03 - Cello and Kondo.wav" WAVE
TRACK 03 AUDIO
TITLE "Cello and Kondo"
PERFORMER "Toshinori Kondo and Tristan Honsinger"
INDEX 01 00:00:00
TRACK 04 AUDIO
TITLE "Television _ Pineapplesass"
PERFORMER "Toshinori Kondo and Tristan Honsinger"
INDEX 00 00:35:40
FILE "04 - Television _ Pineapplesass.wav" WAVE
INDEX 01 00:00:00
TRACK 05 AUDIO
TITLE "Morehands"
PERFORMER "Toshinori Kondo and Tristan Honsinger"
INDEX 00 04:09:60
FILE "05 - Morehands.wav" WAVE
INDEX 01 00:00:00
TRACK 06 AUDIO
TITLE "Crazy"
PERFORMER "Toshinori Kondo and Tristan Honsinger"
INDEX 00 00:57:47
FILE "06 - Crazy.wav" WAVE
INDEX 01 00:00:00
TRACK 07 AUDIO
TITLE "Aveva Paura"
PERFORMER "Toshinori Kondo and Tristan Honsinger"
INDEX 00 02:41:13
FILE "07 - Aveva Paura.wav" WAVE
INDEX 01 00:00:00
TRACK 08 AUDIO
TITLE "Kate's Back"
PERFORMER "Toshinori Kondo and Tristan Honsinger"
INDEX 00 02:30:57
FILE "08 - Kate's Back.wav" WAVE
INDEX 01 00:00:00
TRACK 09 AUDIO
TITLE "Jack's Field"
PERFORMER "Toshinori Kondo and Tristan Honsinger"
INDEX 00 02:26:10
FILE "09 - Jack's Field.wav" WAVE
INDEX 01 00:00:00
TRACK 10 AUDIO
TITLE "Tell Me Another Story"
PERFORMER "Toshinori Kondo and Tristan Honsinger"
INDEX 00 02:25:15
FILE "10 - Tell Me Another Story.wav" WAVE
INDEX 01 00:00:00
TRACK 11 AUDIO
TITLE "La Rapina Della Scala"
PERFORMER "Toshinori Kondo and Tristan Honsinger"
INDEX 00 01:43:53
FILE "11 - La Rapina Della Scala.wav" WAVE
INDEX 01 00:00:00
 
Об издании
Re-release of the 1987 album.
Any questions -> support@pro-jazz.com. По всем вопросам пишите -> support@pro-jazz.com
07:16
155
Нет комментариев. Ваш будет первым!