Вы используете незарегистрированную версию компонента "Вкладки"!

Поиск

(Free Improvisation, Free Jazz, Intakt Records) Irene Schweizer & Louis Moholo - Irene Schweizer & Louis Moholo - 1996 (1987), FLAC (tracks+.cue), lossless

(Free Improvisation, Free Jazz, Intakt Records) Irene Schweizer & Louis Moholo - Irene Schweizer & Louis Moholo - 1996 (1987), FLAC (tracks+.cue), lossless
Издатель (лейбл):
Треклист:
Irène Schweizer & Louis Moholo / Irène Schweizer & Louis Moholo
Жанр: Free Improvisation, Free Jazz, Intakt Records
Страна-производитель диска: Switzerland
Год издания: 1996 (1987)
Издатель (лейбл): Intakt Records
Номер по каталогу: CD 006
Аудиокодек: FLAC (*.flac)
Тип рипа: tracks+.cue
Битрейт аудио: lossless
Продолжительность: 39:15
Источник (релизер): Max Monteiro
Наличие сканов в содержимом раздачи: да
Треклист:
1. Free Mandela! (Irène Schweizer, Louis Moholo) 6:06
2. Mra (Irène Schweizer, Louis Moholo, Dudu Pukwana) 7:47
3. Angel (Dudu Pukwana) 5:24
4. Exile (Irène Schweizer, Louis Moholo) 19:58
A) Song for Johnny Dyani
B) Africa(na) Memories
C) We Will Win the War
Recorded Live November 8, 1986 at the International Jazzfestival Zürich.
Irène Schweizer – Piano
Louis Moholo – Drums
 
Лог создания рипа
Exact Audio Copy V1.0 beta 3 from 29. August 2011
EAC extraction logfile from 26. May 2013, 14:28
Irène Schweizer & Louis Moholo / Irène Schweizer & Louis Moholo
Used drive : SlimtypeeNAU508 5 Adapter: 1 ID: 0
Read mode : Secure
Utilize accurate stream : Yes
Defeat audio cache : Yes
Make use of C2 pointers : No
Read offset correction : 6
Overread into Lead-In and Lead-Out : No
Fill up missing offset samples with silence : Yes
Delete leading and trailing silent blocks : No
Null samples used in CRC calculations : Yes
Used interface : Native Win32 interface for Win NT & 2000
Gap handling : Appended to previous track
Used output format : User Defined Encoder
Selected bitrate : 768 kBit/s
Quality : High
Add ID3 tag : No
Command line compressor : C:\Program Files (x86)\Exact Audio Copy\Flac\flac.exe
Additional command line options : -8 -V -T "ARTIST=%artist%" -T "TITLE=%title%" -T "ALBUM=%albumtitle%" -T "DATE=%year%" -T "TRACKNUMBER=%tracknr%" -T "GENRE=%genre%" -T "PERFORMER=%albuminterpret%" -T "COMPOSER=%composer%" %haslyrics%--tag-from-file=LYRICS="%lyricsfile%"%haslyrics% -T "ALBUMARTIST=%albumartist%" -T "DISCNUMBER=%cdnumber%" -T "TOTALDISCS=%totalcds%" -T "TOTALTRACKS=%numtracks%" -T "COMMENT=%comment%" %source% -o %dest%
TOC of the extracted CD
Track | Start | Length | Start sector | End sector
---------------------------------------------------------
1 | 0:00.00 | 6:05.62 | 0 | 27436
2 | 6:05.62 | 7:47.00 | 27437 | 62461
3 | 13:52.62 | 5:24.00 | 62462 | 86761
4 | 19:16.62 | 19:58.13 | 86762 | 176624
Track 1
Filename C:\EAC rips\01 - Free Mandela!.wav
Pre-gap length 0:00:02.00
Peak level 100.0 %
Extraction speed 1.0 X
Track quality 99.9 %
Test CRC 4E26603B
Copy CRC 4E26603B
Cannot be verified as accurate (confidence 1) [77C97CD8], AccurateRip returned [27623458] (AR v2)
Copy OK
Track 2
Filename C:\EAC rips\02 - Mra.wav
Peak level 98.6 %
Extraction speed 1.3 X
Track quality 100.0 %
Test CRC B25B08A6
Copy CRC B25B08A6
Cannot be verified as accurate (confidence 1) [D73FC705], AccurateRip returned [CB50E122] (AR v2)
Copy OK
Track 3
Filename C:\EAC rips\03 - Angel.wav
Peak level 100.0 %
Extraction speed 1.3 X
Track quality 99.9 %
Test CRC 90490338
Copy CRC 90490338
Cannot be verified as accurate (confidence 1) [14E0B6A2], AccurateRip returned [A07676A8] (AR v2)
Copy OK
Track 4
Filename C:\EAC rips\04 - Exile - A) Song for Johnny Dyani - B) Africa(na) Memories - C) We Will Win the War.wav
Pre-gap length 0:00:03.62
Peak level 97.5 %
Extraction speed 1.8 X
Track quality 99.9 %
Test CRC 7303B5DC
Copy CRC 7303B5DC
Cannot be verified as accurate (confidence 1) [B5347404], AccurateRip returned [650693AE] (AR v2)
Copy OK
No tracks could be verified as accurate
You may have a different pressing from the one(s) in the database
No errors occurred
End of status report
---- CUETools DB Plugin V2.1.4
[CTDB TOCID: cE6EPgH_dARxRjBcvL79P9zy2R0-] disk not present in database
Submit result: cE6EPgH_dARxRjBcvL79P9zy2R0- has been uploaded
==== Log checksum F56E9AB83A107B746DBF0CEA324809D20C3867942F372109FF7008067399E5CD ====
 
Содержание индексной карты (.CUE)
REM GENRE Jazz
REM DATE 1996
REM DISCID 30093304
REM COMMENT "ExactAudioCopy v1.0b3"
PERFORMER "Irène Schweizer & Louis Moholo"
TITLE "Irène Schweizer & Louis Moholo"
FILE "01 - Free Mandela!.wav" WAVE
TRACK 01 AUDIO
TITLE "Free Mandela!"
PERFORMER "Irène Schweizer & Louis Moholo"
INDEX 01 00:00:00
FILE "02 - Mra.wav" WAVE
TRACK 02 AUDIO
TITLE "Mra"
PERFORMER "Irène Schweizer & Louis Moholo"
INDEX 01 00:00:00
FILE "03 - Angel.wav" WAVE
TRACK 03 AUDIO
TITLE "Angel"
PERFORMER "Irène Schweizer & Louis Moholo"
INDEX 01 00:00:00
TRACK 04 AUDIO
TITLE "Exile: A) Song for Johnny Dyani - B) Africa(na) Memories - C) We Will Win the..."
PERFORMER "Irène Schweizer & Louis Moholo"
INDEX 00 05:20:13
FILE "04 - Exile - A) Song for Johnny Dyani - B) Africa(na) Memories - C) We Will Win the War.wav" WAVE
INDEX 01 00:00:00
 
CUETools
[CUETools log; Date: 26.05.2013 14:32:50; Version: 2.1.4]
[CTDB TOCID: cE6EPgH_dARxRjBcvL79P9zy2R0-] found.
Track | CTDB Status
1 | (1/1) Accurately ripped
2 | (1/1) Accurately ripped
3 | (1/1) Accurately ripped
4 | (1/1) Accurately ripped
[AccurateRip ID: 00056406-001677b2-30093304] found.
Track [ CRC | V2 ] Status
01 [a593e443|77c97cd8] (0+0/1) No match
02 [87e99e32|d73fc705] (0+0/1) No match
03 [1c7d9199|14e0b6a2] (0+0/1) No match
04 [3ad22d18|b5347404] (0+0/1) No match
Offsetted by -676:
01 [27623458] (1/1) Accurately ripped
02 [cb50e122] (1/1) Accurately ripped
03 [a07676a8] (1/1) Accurately ripped
04 [650693ae] (1/1) Accurately ripped
Track Peak [ CRC32 ] [W/O NULL] [ LOG ]
-- 100.0 [4880187F] [E6893E94]
01 100.0 [4E26603B] [968D1679] CRC32
02 98.6 [B25B08A6] [D25CF919] CRC32
03 100.0 [90490338] [041089CB] CRC32
04 97.5 [7303B5DC] [7AE8C3F2] CRC32
Any questions -> support@pro-jazz.com. По всем вопросам пишите -> support@pro-jazz.com
13:52
169
Нет комментариев. Ваш будет первым!