Вы используете незарегистрированную версию компонента "Вкладки"!

Поиск

(Avant-Garde Jazz, Free Improvisation) Sato Michihiro (w/ Bill Frisell, Fred Frith, Tenko, Steve Coleman, Elliott Sharp, Ikue Mori, Tom Cora a.o.) - Rodan - 1989, FLAC (tracks+.cue), lossless

(Avant-Garde Jazz, Free Improvisation) Sato Michihiro (w/ Bill Frisell, Fred Frith, Tenko, Steve Coleman, Elliott Sharp, Ikue Mori, Tom Cora a.o.) - Rodan - 1989, FLAC (tracks+.cue), lossless
Треклист:
Sato Michihiro / Rodan
Жанр: Avant-Garde Jazz, Free Improvisation, Hat Hut
Страна-производитель диска: Switzerland
Год издания: 1989
Издатель (лейбл): hatART
Номер по каталогу: CD 6015
Страна: Japan
Аудиокодек: FLAC (*.flac)
Тип рипа: tracks+.cue
Битрейт аудио: lossless
Продолжительность: 67:51
Источник (релизер): waffles.fm, e23slack
Наличие сканов в содержимом раздачи:
Треклист:
1 SM / BF / FF 4:21
2 SM / T / MM 1:27
3 SM / NC / CM 3:33
4 SM / SC 3:17
5 SM / TOH BAN DJAN 3:43
6 SM / NC / CM 2:58
7 SM / T / MM 1:17
8 SM / SB / ES 1:44
9 SM / NC / CM 1:42
10 SM / TC 1:48
11 SM / SEMANTICS 3:54
12 SM / ES 2:02
13 SM / BF / FF 4:20
14 SM / ES / SB 2:00
15 SM / MD / BF / FF 2:32
16 SM / T 2:53
17 SM / BF / FF 3:50
18 SM / SB 2:19
19 SM / NC / CM 1:08
20 SM / SC / JB 4:20
21 SM / FF 2:57
22 SM / MD / GH / BF 2:11
23 SM / BF / FF 5:30
 
Лог создания рипа
Exact Audio Copy V1.0 beta 2 from 29. April 2011
EAC extraction logfile from 17. October 2011, 22:43
Sato Michihiro / Rodan
Used drive : HL-DT-STDVD+-RW GSA-T21N Adapter: 0 ID: 0
Read mode : Secure
Utilize accurate stream : Yes
Defeat audio cache : Yes
Make use of C2 pointers : No
Read offset correction : 667
Overread into Lead-In and Lead-Out : No
Fill up missing offset samples with silence : Yes
Delete leading and trailing silent blocks : No
Null samples used in CRC calculations : Yes
Used interface : Native Win32 interface for Win NT & 2000
Gap handling : Appended to previous track
Used output format : User Defined Encoder
Selected bitrate : 1024 kBit/s
Quality : High
Add ID3 tag : No
Command line compressor : C:\Program Files\FLAC\flac.exe
Additional command line options : -8 -V -T "ARTIST=%artist%" -T "TITLE=%title%" -T "ALBUM=%albumtitle%" -T "DATE=%year%" -T "TRACKNUMBER=%tracknr%" -T "GENRE=%genre%" -T "PERFORMER=%albuminterpret%" -T "COMPOSER=%composer%" %haslyrics%--tag-from-file=LYRICS
TOC of the extracted CD
Track | Start | Length | Start sector | End sector
---------------------------------------------------------
1 | 0:00.00 | 4:21.22 | 0 | 19596
2 | 4:21.22 | 1:27.13 | 19597 | 26134
3 | 5:48.35 | 3:33.35 | 26135 | 42144
4 | 9:21.70 | 3:16.47 | 42145 | 56891
5 | 12:38.42 | 3:42.33 | 56892 | 73574
6 | 16:21.00 | 2:58.60 | 73575 | 86984
7 | 19:19.60 | 1:16.35 | 86985 | 92719
8 | 20:36.20 | 1:44.17 | 92720 | 100536
9 | 22:20.37 | 1:41.40 | 100537 | 108151
10 | 24:02.02 | 1:48.10 | 108152 | 116261
11 | 25:50.12 | 3:54.18 | 116262 | 133829
12 | 29:44.30 | 2:01.45 | 133830 | 142949
13 | 31:46.00 | 6:26.00 | 142950 | 171899
14 | 38:12.00 | 2:00.30 | 171900 | 180929
15 | 40:12.30 | 2:31.70 | 180930 | 192324
16 | 42:44.25 | 2:52.37 | 192325 | 205261
17 | 45:36.62 | 3:50.00 | 205262 | 222511
18 | 49:26.62 | 2:18.63 | 222512 | 232924
19 | 51:45.50 | 1:03.25 | 232925 | 237674
20 | 52:49.00 | 4:24.62 | 237675 | 257536
21 | 57:13.62 | 2:56.63 | 257537 | 270799
22 | 60:10.50 | 2:11.37 | 270800 | 280661
23 | 62:22.12 | 5:29.13 | 280662 | 305349
Track 1
Filename G:\music\Sato Michihiro-Rodan-1989-Flac\01 - SM - BF , FF.wav
Pre-gap length 0:00:02.00
Peak level 86.9 %
Extraction speed 2.5 X
Track quality 99.9 %
Test CRC 2443041C
Copy CRC 2443041C
Accurately ripped (confidence 5) [E0D6AD9D] (AR v1)
Copy OK
Track 2
Filename G:\music\Sato Michihiro-Rodan-1989-Flac\02 - SM - T , MM.wav
Peak level 96.8 %
Extraction speed 2.4 X
Track quality 100.0 %
Test CRC 09DECBC0
Copy CRC 09DECBC0
Accurately ripped (confidence 5) [E7CF2EAC] (AR v1)
Copy OK
Track 3
Filename G:\music\Sato Michihiro-Rodan-1989-Flac\03 - SM - NC , CM.wav
Peak level 65.2 %
Extraction speed 2.6 X
Track quality 99.9 %
Test CRC C2B4762E
Copy CRC C2B4762E
Accurately ripped (confidence 5) [B1AE6A80] (AR v1)
Copy OK
Track 4
Filename G:\music\Sato Michihiro-Rodan-1989-Flac\04 - SM - SC.wav
Peak level 55.7 %
Extraction speed 3.3 X
Track quality 100.0 %
Test CRC C8114947
Copy CRC C8114947
Accurately ripped (confidence 5) [9A2319C0] (AR v1)
Copy OK
Track 5
Filename G:\music\Sato Michihiro-Rodan-1989-Flac\05 - SM - Toh Ban Djan.wav
Peak level 83.8 %
Extraction speed 3.0 X
Track quality 99.9 %
Test CRC 2A704AE1
Copy CRC 2A704AE1
Accurately ripped (confidence 5) [55D7C964] (AR v1)
Copy OK
Track 6
Filename G:\music\Sato Michihiro-Rodan-1989-Flac\06 - SM - NC , CM.wav
Peak level 74.0 %
Extraction speed 3.6 X
Track quality 100.0 %
Test CRC 899A1D80
Copy CRC 899A1D80
Accurately ripped (confidence 5) [6F6D9778] (AR v1)
Copy OK
Track 7
Filename G:\music\Sato Michihiro-Rodan-1989-Flac\07 - SM - T , MM.wav
Peak level 100.0 %
Extraction speed 3.0 X
Track quality 100.0 %
Test CRC 2FF88211
Copy CRC 2FF88211
Accurately ripped (confidence 5) [3B788977] (AR v1)
Copy OK
Track 8
Filename G:\music\Sato Michihiro-Rodan-1989-Flac\08 - SM - SB , ES.wav
Peak level 100.0 %
Extraction speed 2.4 X
Track quality 99.8 %
Test CRC 676A1C92
Copy CRC 676A1C92
Accurately ripped (confidence 5) [278C119F] (AR v1)
Copy OK
Track 9
Filename G:\music\Sato Michihiro-Rodan-1989-Flac\09 - SM - NC , CM.wav
Peak level 62.9 %
Extraction speed 3.3 X
Track quality 100.0 %
Test CRC E7490B8E
Copy CRC E7490B8E
Accurately ripped (confidence 5) [FDB93933] (AR v1)
Copy OK
Track 10
Filename G:\music\Sato Michihiro-Rodan-1989-Flac\10 - SM - TC.wav
Peak level 64.9 %
Extraction speed 3.4 X
Track quality 100.0 %
Test CRC B94D0827
Copy CRC B94D0827
Accurately ripped (confidence 5) [1F5D4273] (AR v1)
Copy OK
Track 11
Filename G:\music\Sato Michihiro-Rodan-1989-Flac\11 - SM - Semantics.wav
Peak level 88.3 %
Extraction speed 4.2 X
Track quality 100.0 %
Test CRC DD06EBDB
Copy CRC DD06EBDB
Accurately ripped (confidence 5) [37D48AE2] (AR v1)
Copy OK
Track 12
Filename G:\music\Sato Michihiro-Rodan-1989-Flac\12 - SM - ES.wav
Peak level 84.8 %
Extraction speed 3.9 X
Track quality 100.0 %
Test CRC FC258400
Copy CRC FC258400
Accurately ripped (confidence 5) [C4370AE2] (AR v1)
Copy OK
Track 13
Filename G:\music\Sato Michihiro-Rodan-1989-Flac\13 - SM - BF , FF.wav
Peak level 57.9 %
Extraction speed 4.7 X
Track quality 100.0 %
Test CRC 006A7013
Copy CRC 006A7013
Accurately ripped (confidence 5) [9D6CC773] (AR v1)
Copy OK
Track 14
Filename G:\music\Sato Michihiro-Rodan-1989-Flac\14 - SM - ES , SB.wav
Peak level 84.9 %
Extraction speed 4.0 X
Track quality 100.0 %
Test CRC 3C1B39C1
Copy CRC 3C1B39C1
Accurately ripped (confidence 5) [99229DD1] (AR v1)
Copy OK
Track 15
Filename G:\music\Sato Michihiro-Rodan-1989-Flac\15 - SM - MD , BF , FF.wav
Peak level 73.8 %
Extraction speed 4.4 X
Track quality 100.0 %
Test CRC C1153612
Copy CRC C1153612
Accurately ripped (confidence 5) [C0F6DCD4] (AR v1)
Copy OK
Track 16
Filename G:\music\Sato Michihiro-Rodan-1989-Flac\16 - SM - T.wav
Peak level 68.9 %
Extraction speed 4.6 X
Track quality 100.0 %
Test CRC A42D89A6
Copy CRC A42D89A6
Accurately ripped (confidence 4) [65DE51AD] (AR v1)
Copy OK
Track 17
Filename G:\music\Sato Michihiro-Rodan-1989-Flac\17 - SM - BF , FF.wav
Peak level 68.9 %
Extraction speed 4.9 X
Track quality 100.0 %
Test CRC 30DD1206
Copy CRC 30DD1206
Accurately ripped (confidence 4) [7E53D562] (AR v1)
Copy OK
Track 18
Filename G:\music\Sato Michihiro-Rodan-1989-Flac\18 - SM - SB.wav
Peak level 94.2 %
Extraction speed 4.7 X
Track quality 100.0 %
Test CRC 930460E3
Copy CRC 930460E3
Accurately ripped (confidence 4) [BF798EAA] (AR v1)
Copy OK
Track 19
Filename G:\music\Sato Michihiro-Rodan-1989-Flac\19 - SM - NC , CM.wav
Peak level 69.2 %
Extraction speed 3.6 X
Track quality 100.0 %
Test CRC AD76E117
Copy CRC AD76E117
Accurately ripped (confidence 4) [B48032CD] (AR v1)
Copy OK
Track 20
Filename G:\music\Sato Michihiro-Rodan-1989-Flac\20 - SM ,SC - JB.wav
Peak level 90.4 %
Extraction speed 5.3 X
Track quality 100.0 %
Test CRC 4C5F7BD5
Copy CRC 4C5F7BD5
Accurately ripped (confidence 4) [498F6364] (AR v1)
Copy OK
Track 21
Filename G:\music\Sato Michihiro-Rodan-1989-Flac\21 - SM - FF.wav
Peak level 70.5 %
Extraction speed 5.0 X
Track quality 100.0 %
Test CRC DD1AB2B0
Copy CRC DD1AB2B0
Accurately ripped (confidence 4) [2FB30800] (AR v1)
Copy OK
Track 22
Filename G:\music\Sato Michihiro-Rodan-1989-Flac\22 - SM - MD , GH , BF.wav
Peak level 100.0 %
Extraction speed 3.7 X
Track quality 99.9 %
Test CRC C13C4230
Copy CRC C13C4230
Accurately ripped (confidence 4) [ACF4A3ED] (AR v1)
Copy OK
Track 23
Filename G:\music\Sato Michihiro-Rodan-1989-Flac\23 - SM - BF , FF.wav
Peak level 78.9 %
Extraction speed 5.7 X
Track quality 100.0 %
Test CRC 4B69C294
Copy CRC 4B69C294
Accurately ripped (confidence 3) [E30008FC] (AR v1)
Copy OK
All tracks accurately ripped
No errors occurred
End of status report
==== Log checksum 82A74B25C1502A0C8A448900301380BB64B14B9BAA5CB3BEC455A91B002DF6BE ====
 
Содержание индексной карты (.CUE)
REM GENRE "Free, Avant"
REM DATE 1989
REM DISCID 480FE717
REM COMMENT "ExactAudioCopy v1.0b2"
CATALOG 0000000000000
PERFORMER "Sato Michihiro"
TITLE "Rodan"
FILE "01 - SM - BF , FF.wav" WAVE
TRACK 01 AUDIO
TITLE "BF / FF"
PERFORMER "SM"
INDEX 01 00:00:00
FILE "02 - SM - T , MM.wav" WAVE
TRACK 02 AUDIO
TITLE "T / MM"
PERFORMER "SM"
INDEX 01 00:00:00
FILE "03 - SM - NC , CM.wav" WAVE
TRACK 03 AUDIO
TITLE "NC / CM"
PERFORMER "SM"
INDEX 01 00:00:00
FILE "04 - SM - SC.wav" WAVE
TRACK 04 AUDIO
TITLE "SC"
PERFORMER "SM"
INDEX 01 00:00:00
FILE "05 - SM - Toh Ban Djan.wav" WAVE
TRACK 05 AUDIO
TITLE "Toh Ban Djan"
PERFORMER "SM"
INDEX 01 00:00:00
FILE "06 - SM - NC , CM.wav" WAVE
TRACK 06 AUDIO
TITLE "NC / CM"
PERFORMER "SM"
INDEX 01 00:00:00
FILE "07 - SM - T , MM.wav" WAVE
TRACK 07 AUDIO
TITLE "T / MM"
PERFORMER "SM"
INDEX 01 00:00:00
FILE "08 - SM - SB , ES.wav" WAVE
TRACK 08 AUDIO
TITLE "SB / ES"
PERFORMER "SM"
INDEX 01 00:00:00
FILE "09 - SM - NC , CM.wav" WAVE
TRACK 09 AUDIO
TITLE "NC / CM"
PERFORMER "SM"
INDEX 01 00:00:00
FILE "10 - SM - TC.wav" WAVE
TRACK 10 AUDIO
TITLE "TC"
PERFORMER "SM"
INDEX 01 00:00:00
FILE "11 - SM - Semantics.wav" WAVE
TRACK 11 AUDIO
TITLE "Semantics"
PERFORMER "SM"
INDEX 01 00:00:00
FILE "12 - SM - ES.wav" WAVE
TRACK 12 AUDIO
TITLE "ES"
PERFORMER "SM"
INDEX 01 00:00:00
FILE "13 - SM - BF , FF.wav" WAVE
TRACK 13 AUDIO
TITLE "BF / FF"
PERFORMER "SM"
INDEX 01 00:00:00
FILE "14 - SM - ES , SB.wav" WAVE
TRACK 14 AUDIO
TITLE "ES / SB"
PERFORMER "SM"
INDEX 01 00:00:00
FILE "15 - SM - MD , BF , FF.wav" WAVE
TRACK 15 AUDIO
TITLE "MD / BF / FF"
PERFORMER "SM"
INDEX 01 00:00:00
FILE "16 - SM - T.wav" WAVE
TRACK 16 AUDIO
TITLE "T"
PERFORMER "SM"
INDEX 01 00:00:00
FILE "17 - SM - BF , FF.wav" WAVE
TRACK 17 AUDIO
TITLE "BF / FF"
PERFORMER "SM"
INDEX 01 00:00:00
FILE "18 - SM - SB.wav" WAVE
TRACK 18 AUDIO
TITLE "SB"
PERFORMER "SM"
INDEX 01 00:00:00
FILE "19 - SM - NC , CM.wav" WAVE
TRACK 19 AUDIO
TITLE "NC / CM"
PERFORMER "SM"
INDEX 01 00:00:00
FILE "20 - SM ,SC - JB.wav" WAVE
TRACK 20 AUDIO
TITLE "JB"
PERFORMER "SM /SC"
INDEX 01 00:00:00
FILE "21 - SM - FF.wav" WAVE
TRACK 21 AUDIO
TITLE "FF"
PERFORMER "SM"
INDEX 01 00:00:00
FILE "22 - SM - MD , GH , BF.wav" WAVE
TRACK 22 AUDIO
TITLE "MD / GH / BF"
PERFORMER "SM"
INDEX 01 00:00:00
FILE "23 - SM - BF , FF.wav" WAVE
TRACK 23 AUDIO
TITLE "BF / FF"
PERFORMER "SM"
INDEX 01 00:00:00
 
Лог проверки качества
d:\>d:\aucdtect -d/-m0 d:\zzz\*.wav
auCDtect: CD records authenticity detector, version 0.8.2
Copyright (c) 2004 Oleg Berngardt. All rights reserved.
Copyright (c) 2004 Alexander Djourik. All rights reserved.
------------------------------------------------------------
Processing file: [01. BF - FF.wav]
------------------------------------------------------------
This track looks like CDDA with probability 100%
------------------------------------------------------------
Processing file: [02. T - MM.wav]
------------------------------------------------------------
This track looks like CDDA with probability 100%
------------------------------------------------------------
Processing file: [03. NC - CM.wav]
------------------------------------------------------------
This track looks like CDDA with probability 100%
------------------------------------------------------------
Processing file: [04. SC.wav]
------------------------------------------------------------
This track looks like CDDA with probability 100%
------------------------------------------------------------
Processing file: [05. Toh Ban Djan.wav]
------------------------------------------------------------
This track looks like CDDA with probability 100%
------------------------------------------------------------
Processing file: [06. NC - CM.wav]
------------------------------------------------------------
This track looks like CDDA with probability 100%
------------------------------------------------------------
Processing file: [07. T - MM.wav]
------------------------------------------------------------
This track looks like CDDA with probability 100%
------------------------------------------------------------
Processing file: [08. SB - ES.wav]
------------------------------------------------------------
This track looks like CDDA with probability 100%
------------------------------------------------------------
Processing file: [09. NC - CM.wav]
------------------------------------------------------------
This track looks like CDDA with probability 100%
------------------------------------------------------------
Processing file: [10. TC.wav]
------------------------------------------------------------
This track looks like CDDA with probability 99%
------------------------------------------------------------
Processing file: [11. Semantics.wav]
------------------------------------------------------------
This track looks like CDDA with probability 100%
------------------------------------------------------------
Processing file: [12. ES.wav]
------------------------------------------------------------
This track looks like CDDA with probability 100%
------------------------------------------------------------
Processing file: [13. BF - FF.wav]
------------------------------------------------------------
This track looks like CDDA with probability 100%
------------------------------------------------------------
Processing file: [14. ES - SB.wav]
------------------------------------------------------------
This track looks like CDDA with probability 100%
------------------------------------------------------------
Processing file: [15. MD - BF - FF.wav]
------------------------------------------------------------
This track looks like CDDA with probability 100%
------------------------------------------------------------
Processing file: [16. T.wav]
------------------------------------------------------------
This track looks like CDDA with probability 99%
------------------------------------------------------------
Processing file: [17. BF - FF.wav]
------------------------------------------------------------
This track looks like CDDA with probability 100%
------------------------------------------------------------
Processing file: [18. SB.wav]
------------------------------------------------------------
This track looks like CDDA with probability 100%
------------------------------------------------------------
Processing file: [19. NC - CM.wav]
------------------------------------------------------------
This track looks like CDDA with probability 99%
------------------------------------------------------------
Processing file: [20. JB.wav]
------------------------------------------------------------
This track looks like CDDA with probability 100%
------------------------------------------------------------
Processing file: [21. FF.wav]
------------------------------------------------------------
This track looks like CDDA with probability 100%
------------------------------------------------------------
Processing file: [22. MD - GH - BF.wav]
------------------------------------------------------------
This track looks like CDDA with probability 100%
------------------------------------------------------------
Processing file: [23. BF - FF.wav]
------------------------------------------------------------
This track looks like CDDA with probability 100%
------------------------------------------------------------
Final Conclusion:
------------------------------------------------------------
These tracks looks like CDDA with probability 100%
Доп. информация:
 
AMG Review
Sato Michihiro is a performer on the tsugaru shamisen, a Japanese stringed instrument somewhat similar to the koto with a lengthy traditional history. Michihiro, however, sought to bring his instrument into the world of late 20th century free improvisation and hooked up with John Zorn to create the album Ganryu Island. A couple of years later, Zorn arranged for Michihiro to record this series of largely improvised duos, trios, and quartets with various members of the downtown New York City avant-garde. The results are decidedly mixed, and the fault seems to lie with both Michihiro's lack of comfort with this sort of free dialogue and the American musicians' tendency not to listen to the shamisen, instead going their merry way playing as they normally would. There are exceptions, notably the trios with Nicolas Collins and Christian Marclay, some of the tracks with guitarist Fred Frith, and the written piece with Toh Ban Djan (Ikue Mori and Luli Shioi). But, by and large, the pieces fall into either routine mimicry or, conversely, sound as though recorded in different rooms. If one isolates Michihiro's playing, it's often in and of itself very attractive. Similarly, some of his partners' contributions, like the short-lived band Semantics, are enjoyable. But rarely do the conceptual twain meet. In sum, an idea that looked better on paper than was achieved in reality.
 
Состав
Sato Michihiro: tsugaru shamisen on all tracks
with
Bill Frisell, Fred Frith, Tenko, Mark Miller, Nicolas Collins, Christian Marclay, Steve Coleman, Toh Ban Djan (Ikue Mori & Luli Shioi), Semantics (Elliott Sharp, Samm Bennett, Ned Rothenberg), Tom Cora, Joey Baron, Mark Dresser, Gerry Hemingway
Any questions -> support@pro-jazz.com. По всем вопросам пишите -> support@pro-jazz.com
13:51
230
Нет комментариев. Ваш будет первым!