Вы используете незарегистрированную версию компонента "Вкладки"!

Поиск

(Free Improvisation, Free Jazz) [CD] Francois Carrier, Michel Lambert, Alexey Lapin - The Russian Concerts Volume 2 - 2014, FLAC (tracks+.cue), lossless

(Free Improvisation, Free Jazz) [CD] Francois Carrier, Michel Lambert, Alexey Lapin - The Russian Concerts Volume 2 - 2014, FLAC (tracks+.cue), lossless
Треклист:
François Carrier, Michel Lambert, Alexey Lapin / The Russian Concerts Volume 2
Жанр: Free Improvisation, Free Jazz
Носитель: CD
Страна-производитель диска (релиза): UK
Год издания: 2014
Издатель (лейбл): FMR Records
Номер по каталогу: FMRCD381
Аудиокодек: FLAC (*.flac)
Тип рипа: tracks+.cue
Битрейт аудио: lossless
Продолжительность: 74:44
Источник (релизер): cd
Наличие сканов в содержимом раздачи: нет
Треклист:
1. JCC II 4:35
2. JCC III 7:49
3. JCC IV 10:48
4. ESG-21 I 12:11
5. ESG-21 II 7:47
6. ESG-21 III 13:02
7. JFC I 10:06
8. JFC II 8:06
 
Лог создания рипа
Exact Audio Copy V1.0 beta 3 from 29. August 2011
EAC extraction logfile from 30. September 2015, 9:23
Francois Carrier, Alexey Lapin, Michel Lambert / The Russian Concerts Vol. 2
Used drive : ASUS DRW-24F1ST a Adapter: 0 ID: 0
Read mode : Secure
Utilize accurate stream : Yes
Defeat audio cache : Yes
Make use of C2 pointers : No
Read offset correction : 6
Overread into Lead-In and Lead-Out : No
Fill up missing offset samples with silence : Yes
Delete leading and trailing silent blocks : No
Null samples used in CRC calculations : Yes
Used interface : Native Win32 interface for Win NT & 2000
Gap handling : Appended to previous track
Used output format : User Defined Encoder
Selected bitrate : 320 kBit/s
Quality : High
Add ID3 tag : No
Command line compressor : D:\Programs\Exact Audio Copy\Flac\flac.exe
Additional command line options : -V -8 -T "Genre=%genre%" -T "Artist=%artist%" -T "Title=%title%" -T "Album=%albumtitle%" -T "Date=%year%" -T "Tracknumber=%tracknr%" -T "Comment=%comment%" %source%
TOC of the extracted CD
Track | Start | Length | Start sector | End sector
---------------------------------------------------------
1 | 0:00.00 | 4:37.65 | 0 | 20839
2 | 4:37.65 | 7:52.08 | 20840 | 56247
3 | 12:29.73 | 10:51.00 | 56248 | 105072
4 | 23:20.73 | 12:14.00 | 105073 | 160122
5 | 35:34.73 | 7:29.56 | 160123 | 193853
6 | 43:04.54 | 13:05.00 | 193854 | 252728
7 | 56:09.54 | 10:09.03 | 252729 | 298406
8 | 66:18.57 | 8:25.39 | 298407 | 336320
Track 1
Filename D:\EAC\01 JCC II.wav
Pre-gap length 0:00:02.00
Peak level 97.6 %
Extraction speed 4.2 X
Track quality 99.9 %
Test CRC A12CA4CA
Copy CRC A12CA4CA
Track not present in AccurateRip database
Copy OK
Track 2
Filename D:\EAC\02 JCC III.wav
Pre-gap length 0:00:02.74
Peak level 97.6 %
Extraction speed 5.2 X
Track quality 99.9 %
Test CRC B722263A
Copy CRC B722263A
Track not present in AccurateRip database
Copy OK
Track 3
Filename D:\EAC\03 JCC IV.wav
Pre-gap length 0:00:02.74
Peak level 97.6 %
Extraction speed 6.7 X
Track quality 100.0 %
Test CRC 3B66B464
Copy CRC 3B66B464
Track not present in AccurateRip database
Copy OK
Track 4
Filename D:\EAC\04 ESG-21 I.wav
Pre-gap length 0:00:02.74
Peak level 96.6 %
Extraction speed 7.6 X
Track quality 100.0 %
Test CRC D78912A4
Copy CRC D78912A4
Track not present in AccurateRip database
Copy OK
Track 5
Filename D:\EAC\05 ESG-21 II.wav
Pre-gap length 0:00:02.74
Peak level 96.6 %
Extraction speed 8.0 X
Track quality 100.0 %
Test CRC 285F7207
Copy CRC 285F7207
Track not present in AccurateRip database
Copy OK
Track 6
Filename D:\EAC\06 ESG-21 III.wav
Pre-gap length 0:00:02.74
Peak level 96.6 %
Extraction speed 8.9 X
Track quality 100.0 %
Test CRC 62433651
Copy CRC 62433651
Track not present in AccurateRip database
Copy OK
Track 7
Filename D:\EAC\07 JFC I.wav
Pre-gap length 0:00:02.74
Peak level 97.6 %
Extraction speed 9.4 X
Track quality 100.0 %
Test CRC 5D0AF3F5
Copy CRC 5D0AF3F5
Track not present in AccurateRip database
Copy OK
Track 8
Filename D:\EAC\08 JFC II.wav
Pre-gap length 0:00:02.74
Peak level 97.6 %
Extraction speed 9.7 X
Track quality 100.0 %
Test CRC 722E09E9
Copy CRC 722E09E9
Track not present in AccurateRip database
Copy OK
None of the tracks are present in the AccurateRip database
No errors occurred
End of status report
==== Log checksum 0F0237A92FBF5D7FD09601BA859975C808F406790DFAFD8F91B42ADFB6CDDB87 ====
 
Содержание индексной карты (.CUE)
REM GENRE Jazz
REM DATE 2014
REM DISCID 6B118408
REM COMMENT "ExactAudioCopy v1.0b3"
PERFORMER "Francois Carrier, Alexey Lapin, Michel Lambert"
TITLE "The Russian Concerts Vol. 2"
FILE "01 JCC II.wav" WAVE
TRACK 01 AUDIO
TITLE "JCC II"
PERFORMER "Francois Carrier, Alexey Lapin, Michel Lambert"
ISRC CA9BD1300005
INDEX 01 00:00:00
TRACK 02 AUDIO
TITLE "JCC III"
PERFORMER "Francois Carrier, Alexey Lapin, Michel Lambert"
ISRC CA9BD1300006
INDEX 00 04:34:66
FILE "02 JCC III.wav" WAVE
INDEX 01 00:00:00
TRACK 03 AUDIO
TITLE "JCC IV"
PERFORMER "Francois Carrier, Alexey Lapin, Michel Lambert"
ISRC CA9BD1300007
INDEX 00 07:49:09
FILE "03 JCC IV.wav" WAVE
INDEX 01 00:00:00
TRACK 04 AUDIO
TITLE "ESG-21 I"
PERFORMER "Francois Carrier, Alexey Lapin, Michel Lambert"
ISRC CA9BD1300008
INDEX 00 10:48:01
FILE "04 ESG-21 I.wav" WAVE
INDEX 01 00:00:00
TRACK 05 AUDIO
TITLE "ESG-21 II"
PERFORMER "Francois Carrier, Alexey Lapin, Michel Lambert"
ISRC CA9BD1300009
INDEX 00 12:11:01
FILE "05 ESG-21 II.wav" WAVE
INDEX 01 00:00:00
TRACK 06 AUDIO
TITLE "ESG-21 III"
PERFORMER "Francois Carrier, Alexey Lapin, Michel Lambert"
ISRC CA9BD1300010
INDEX 00 07:26:57
FILE "06 ESG-21 III.wav" WAVE
INDEX 01 00:00:00
TRACK 07 AUDIO
TITLE "JFC I"
PERFORMER "Francois Carrier, Alexey Lapin, Michel Lambert"
ISRC CA9BD1300011
INDEX 00 13:02:01
FILE "07 JFC I.wav" WAVE
INDEX 01 00:00:00
TRACK 08 AUDIO
TITLE "JFC II"
PERFORMER "Francois Carrier, Alexey Lapin, Michel Lambert"
ISRC CA9BD1300012
INDEX 00 10:06:04
FILE "08 JFC II.wav" WAVE
INDEX 01 00:00:00
Доп. информация: Recorded live in Moscow at Nikitskaya Jewish Cultural Center (JCC) on April 28, 2013 and in St. Petersburg at ESG-21 (Experimental Sound Gallery) on April 29 and JFC Jazz Club on April 30, 2013.
 
Состав
Alto Saxophone [Alto Sax] – François Carrier
Drums – Michel Lambert
Piano – Alexey Lapin
По всем вопросам пишите личное сообщение пользователю M0p94ok.
15:55
213
Нет комментариев. Ваш будет первым!