Вы используете незарегистрированную версию компонента "Вкладки"!

Поиск

(Avant-Garde Jazz, Contemporary Jazz) [CD] Lila (Christoph Erb, Florian Stoffner, Hans-Peter Pfammatter, Julian Sartorius) - Tol`s Toy - 2011, FLAC (tracks+.cue), lossless

Треклист:
Lila / Tol`s Toy
Жанр: Avant-Garde Jazz, Contemporary Jazz
Носитель: CD
Страна-производитель диска (релиза): Switzerland
Год издания: 2011
Издатель (лейбл): Veto-Records
Номер по каталогу: 009
Аудиокодек: FLAC (*.flac)
Тип рипа: tracks+.cue
Битрейт аудио: lossless
Продолжительность: 46:56
Источник (релизер): cd
Наличие сканов в содержимом раздачи: нет
Треклист:
1. Pendant II
2. Photo-Apperat-Graph
3. BeroBoro fџr Leo
4. Buxus harlandii
5. ArroGans
6. nohpolyX
7. Ulla
8. ArSet
 
Лог создания рипа
Exact Audio Copy V1.0 beta 3 from 29. August 2011
EAC extraction logfile from 26. September 2015, 11:30
Lila / Tol`s Toy
Used drive : ASUS DRW-24F1ST a Adapter: 0 ID: 0
Read mode : Secure
Utilize accurate stream : Yes
Defeat audio cache : Yes
Make use of C2 pointers : No
Read offset correction : 6
Overread into Lead-In and Lead-Out : No
Fill up missing offset samples with silence : Yes
Delete leading and trailing silent blocks : No
Null samples used in CRC calculations : Yes
Used interface : Native Win32 interface for Win NT & 2000
Gap handling : Appended to previous track
Used output format : User Defined Encoder
Selected bitrate : 320 kBit/s
Quality : High
Add ID3 tag : No
Command line compressor : D:\Programs\Exact Audio Copy\Flac\flac.exe
Additional command line options : -V -8 -T "Genre=%genre%" -T "Artist=%artist%" -T "Title=%title%" -T "Album=%albumtitle%" -T "Date=%year%" -T "Tracknumber=%tracknr%" -T "Comment=%comment%" %source%
TOC of the extracted CD
Track | Start | Length | Start sector | End sector
---------------------------------------------------------
1 | 0:00.00 | 2:21.08 | 0 | 10582
2 | 2:21.08 | 9:22.59 | 10583 | 52791
3 | 11:43.67 | 1:57.00 | 52792 | 61566
4 | 13:40.67 | 15:38.43 | 61567 | 131959
5 | 29:19.35 | 6:15.38 | 131960 | 160122
6 | 35:34.73 | 0:49.74 | 160123 | 163871
7 | 36:24.72 | 3:07.73 | 163872 | 177969
8 | 39:32.70 | 7:23.50 | 177970 | 211244
Track 1
Filename D:\EAC\01 Pendant II.wav
Pre-gap length 0:00:02.00
Peak level 99.0 %
Extraction speed 3.5 X
Track quality 99.9 %
Test CRC 01C65A5D
Copy CRC 01C65A5D
Track not present in AccurateRip database
Copy OK
Track 2
Filename D:\EAC\02 Photo-Apperat-Graph.wav
Pre-gap length 0:00:02.00
Peak level 99.0 %
Extraction speed 5.8 X
Track quality 100.0 %
Test CRC 2BDBA693
Copy CRC 2BDBA693
Track not present in AccurateRip database
Copy OK
Track 3
Filename D:\EAC\03 BeroBoro fur Leo.wav
Pre-gap length 0:00:02.00
Peak level 93.6 %
Extraction speed 5.1 X
Track quality 100.0 %
Test CRC E4C370D9
Copy CRC E4C370D9
Track not present in AccurateRip database
Copy OK
Track 4
Filename D:\EAC\04 Buxus harlandii.wav
Pre-gap length 0:00:02.00
Peak level 99.0 %
Extraction speed 7.0 X
Track quality 99.9 %
Test CRC 1F00BC51
Copy CRC 1F00BC51
Track not present in AccurateRip database
Copy OK
Track 5
Filename D:\EAC\05 ArroGans.wav
Pre-gap length 0:00:04.49
Peak level 99.0 %
Extraction speed 7.1 X
Track quality 99.9 %
Test CRC E8000FD8
Copy CRC E8000FD8
Track not present in AccurateRip database
Copy OK
Track 6
Filename D:\EAC\06 nohpolyX.wav
Pre-gap length 0:00:02.00
Peak level 89.3 %
Extraction speed 4.8 X
Track quality 100.0 %
Test CRC CE5BD2E9
Copy CRC CE5BD2E9
Track not present in AccurateRip database
Copy OK
Track 7
Filename D:\EAC\07 Ulla.wav
Pre-gap length 0:00:00.14
Peak level 99.0 %
Extraction speed 7.3 X
Track quality 100.0 %
Test CRC 2B941C51
Copy CRC 2B941C51
Track not present in AccurateRip database
Copy OK
Track 8
Filename D:\EAC\08 ArSet.wav
Pre-gap length 0:00:04.65
Peak level 99.0 %
Extraction speed 8.5 X
Track quality 100.0 %
Test CRC 89A967FF
Copy CRC 89A967FF
Track not present in AccurateRip database
Copy OK
None of the tracks are present in the AccurateRip database
No errors occurred
End of status report
==== Log checksum E588B4643B3C2745DE21FD3A3943CE860F228967D0C2FFDFDE4037FACFE4562D ====
 
Содержание индексной карты (.CUE)
REM GENRE Jazz
REM DATE 2011
REM DISCID 5E0B0008
REM COMMENT "ExactAudioCopy v1.0b3"
PERFORMER "Lila"
TITLE "Tol`s Toy"
FILE "01 Pendant II.wav" WAVE
TRACK 01 AUDIO
TITLE "Pendant II"
PERFORMER "Lila"
INDEX 01 00:00:00
TRACK 02 AUDIO
TITLE "Photo-Apperat-Graph"
PERFORMER "Lila"
INDEX 00 02:19:08
FILE "02 Photo-Apperat-Graph.wav" WAVE
INDEX 01 00:00:00
TRACK 03 AUDIO
TITLE "BeroBoro fur Leo"
PERFORMER "Lila"
INDEX 00 09:20:59
FILE "03 BeroBoro fur Leo.wav" WAVE
INDEX 01 00:00:00
TRACK 04 AUDIO
TITLE "Buxus harlandii"
PERFORMER "Lila"
INDEX 00 01:55:00
FILE "04 Buxus harlandii.wav" WAVE
INDEX 01 00:00:00
TRACK 05 AUDIO
TITLE "ArroGans"
PERFORMER "Lila"
INDEX 00 15:33:69
FILE "05 ArroGans.wav" WAVE
INDEX 01 00:00:00
TRACK 06 AUDIO
TITLE "nohpolyX"
PERFORMER "Lila"
INDEX 00 06:13:38
FILE "06 nohpolyX.wav" WAVE
INDEX 01 00:00:00
TRACK 07 AUDIO
TITLE "Ulla"
PERFORMER "Lila"
INDEX 00 00:49:60
FILE "07 Ulla.wav" WAVE
INDEX 01 00:00:00
TRACK 08 AUDIO
TITLE "ArSet"
PERFORMER "Lila"
INDEX 00 03:03:08
FILE "08 ArSet.wav" WAVE
INDEX 01 00:00:00
Доп. информация: All tracks recorded live, except 6 & 9. Recorded at Kulak, Berikon on Nov. 19th/20th 2010
 
Состав
Drums – Julian Sartorius
Guitar – Florian Stoffner
Reeds (ts/bcl) – Christoph Erb
Synthesizer [Bass], Organ [Wurlitzer], Electronics – Hans-Peter Pfammatter
По всем вопросам пишите личное сообщение пользователю M0p94ok.
15:53
166
Нет комментариев. Ваш будет первым!