Поиск

(Free Improvisation) Franz Koglmann (Paul Bley, Tony Coe, Gerry Hemingway...) - A White Line - 1990, FLAC (image+.cue), lossless

(Free Improvisation) Franz Koglmann (Paul Bley, Tony Coe, Gerry Hemingway...) - A White Line - 1990, FLAC (image+.cue), lossless
Треклист:
Franz Koglmann / A White Line
Жанр: Free Improvisation
Страна-производитель диска: Switzerland
Год издания диска: 1990
Издатель (лейбл): hat ART
Номер по каталогу: CD 6048
Аудиокодек: FLAC (*.flac)
Тип рипа: image+.cue
Битрейт аудио: lossless
Продолжительность: 71:06
Источник (релизер): cd
Наличие сканов в содержимом раздачи: нет
Треклист:
1 A White Line 7:27
2 April In Vienna 4:58
3 Eccentric Shorty 7:12
4 Quapp 6:06
5 Festive Minor 3:45
6 The Fabel Of Mabel 4:45
7 Bley Play 3:45
8 Jambangle 5:24
9 Oof 3:54
10 Aristony 3:45
11 For Max 3:48
12 Out Of Nowhere 3:50
13 Free (Three) Again I-III 6:26
14 Je? 3:23
15 At The Jazz Band Ball 2:37
 
Лог создания рипа
Exact Audio Copy V1.0 beta 2 from 29. April 2011
EAC extraction logfile from 14. December 2011, 21:03
Franz Koglmann / A White Line
Used drive : Optiarc DVD RW AD-7170A Adapter: 0 ID: 0
Read mode : Secure
Utilize accurate stream : Yes
Defeat audio cache : Yes
Make use of C2 pointers : No
Read offset correction : 48
Overread into Lead-In and Lead-Out : No
Fill up missing offset samples with silence : Yes
Delete leading and trailing silent blocks : No
Null samples used in CRC calculations : Yes
Used interface : Native Win32 interface for Win NT & 2000
Used output format : User Defined Encoder
Selected bitrate : 320 kBit/s
Quality : High
Add ID3 tag : No
Command line compressor : C:\Program Files\Exact Audio Copy\Flac\flac.exe
Additional command line options : -V -8 -T "Date=%year%" -T "Genre=%genre%" %source%
TOC of the extracted CD
Track | Start | Length | Start sector | End sector
---------------------------------------------------------
1 | 0:00.00 | 7:27.62 | 0 | 33586
2 | 7:27.62 | 4:58.00 | 33587 | 55936
3 | 12:25.62 | 7:12.00 | 55937 | 88336
4 | 19:37.62 | 6:06.00 | 88337 | 115786
5 | 25:43.62 | 3:45.25 | 115787 | 132686
6 | 29:29.12 | 4:45.50 | 132687 | 154111
7 | 34:14.62 | 3:45.00 | 154112 | 170986
8 | 37:59.62 | 5:24.00 | 170987 | 195286
9 | 43:23.62 | 3:54.00 | 195287 | 212836
10 | 47:17.62 | 3:45.00 | 212837 | 229711
11 | 51:02.62 | 3:48.00 | 229712 | 246811
12 | 54:50.62 | 3:50.00 | 246812 | 264061
13 | 58:40.62 | 6:26.00 | 264062 | 293011
14 | 65:06.62 | 3:23.00 | 293012 | 308236
15 | 68:29.62 | 2:37.13 | 308237 | 320024
Range status and errors
Selected range
Filename C:\EAC\Downloads\Franz Koglmann - A White Line.wav
Peak level 95.0 %
Extraction speed 5.6 X
Range quality 99.9 %
Test CRC 817CD35B
Copy CRC DE6638C8
Copy OK
No errors occurred
AccurateRip summary
Track 1 not present in database
Track 2 not present in database
Track 3 not present in database
Track 4 not present in database
Track 5 not present in database
Track 6 not present in database
Track 7 not present in database
Track 8 not present in database
Track 9 not present in database
Track 10 not present in database
Track 11 not present in database
Track 12 not present in database
Track 13 not present in database
Track 14 not present in database
Track 15 not present in database
None of the tracks are present in the AccurateRip database
End of status report
==== Log checksum 8625D60225D9871E5AB52C6404B37D257BE55159F51046A2167F5F8D41911FF8 ====
 
Содержание индексной карты (.CUE)
REM GENRE Jazz
REM DATE 1989
REM DISCID D710AB0F
REM COMMENT "ExactAudioCopy v1.0b2"
PERFORMER "Franz Koglmann"
TITLE "A White Line"
FILE "Franz Koglmann - A White Line.flac" WAVE
TRACK 01 AUDIO
TITLE "A White Line"
PERFORMER "Franz Koglmann"
INDEX 01 00:00:00
TRACK 02 AUDIO
TITLE "April in Vienna"
PERFORMER "Franz Koglmann"
INDEX 00 07:26:00
INDEX 01 07:27:62
TRACK 03 AUDIO
TITLE "Eccentric Shorty"
PERFORMER "Franz Koglmann"
INDEX 00 12:23:00
INDEX 01 12:25:62
TRACK 04 AUDIO
TITLE "Quapp"
PERFORMER "Franz Koglmann"
INDEX 00 19:34:00
INDEX 01 19:37:62
TRACK 05 AUDIO
TITLE "Festive Minor"
PERFORMER "Franz Koglmann"
INDEX 00 25:41:00
INDEX 01 25:43:62
TRACK 06 AUDIO
TITLE "The Fabel of Mabel"
PERFORMER "Franz Koglmann"
INDEX 00 29:26:00
INDEX 01 29:29:12
TRACK 07 AUDIO
TITLE "Bley Play"
PERFORMER "Franz Koglmann"
INDEX 00 34:11:00
INDEX 01 34:14:62
TRACK 08 AUDIO
TITLE "Jambangle"
PERFORMER "Franz Koglmann"
INDEX 01 37:59:62
TRACK 09 AUDIO
TITLE "Oof"
PERFORMER "Franz Koglmann"
INDEX 00 43:22:00
INDEX 01 43:23:62
TRACK 10 AUDIO
TITLE "Aristony"
PERFORMER "Franz Koglmann"
INDEX 00 47:15:00
INDEX 01 47:17:62
TRACK 11 AUDIO
TITLE "For Max"
PERFORMER "Franz Koglmann"
INDEX 00 50:59:00
INDEX 01 51:02:62
TRACK 12 AUDIO
TITLE "Out of Nowhere"
PERFORMER "Franz Koglmann"
INDEX 00 54:47:00
INDEX 01 54:50:62
TRACK 13 AUDIO
TITLE "Free (Three) Again I-III"
PERFORMER "Franz Koglmann"
INDEX 00 58:37:00
INDEX 01 58:40:62
TRACK 14 AUDIO
TITLE "Je?"
PERFORMER "Franz Koglmann"
INDEX 00 65:03:00
INDEX 01 65:06:62
TRACK 15 AUDIO
TITLE "At the Jazz Band Ball"
PERFORMER "Franz Koglmann"
INDEX 00 68:27:00
INDEX 01 68:29:62
 
Состав
Accordion – Helmut Federle
Flugelhorn, Trumpet – Franz Koglmann
Bass – Klaus Koch
Clarinet, Tenor Saxophone – Tony Coe
Conductor – Gustav Bauser
Drums – Gerry Hemingway
French Horn – Jean-Christophe Mastnak
Guitar, Electric Guitar – Burkhard Stangl
Oboe – Mario Arcari
Piano – Paul Bley
Tuba – Raoul Herget
Приватный:
Нет (DHT включён)
Размер:
282.04 Мб (295,738,426 байт) » файлов: 4
Участники:
0 раздают, 0 качают (0 участников всего)
Внешние участники:
1 раздают, 0 качают (1 участников всего) [ Обновить ]
Есть вопросы - пишите личное сообщение пользователю M0p94ok.
19:41
28
Нет комментариев. Ваш будет первым!