Вы используете незарегистрированную версию компонента "Вкладки"!

Поиск

(Avant-Garde Jazz) Actis Dato Quartet - Swingin' Hanoi - 2003, FLAC (tracks+.cue), lossless

(Avant-Garde Jazz) Actis Dato Quartet - Swingin' Hanoi - 2003, FLAC (tracks+.cue), lossless
Треклист:
Actis Dato Quartet - Swingin' Hanoi
Жанр: Avant-Garde Jazz
Страна-производитель диска: Italy
Год издания диска: 2003
Издатель (лейбл): Splasc(H) Records
Номер по каталогу: CDH907
Аудиокодек: FLAC (*.flac)
Тип рипа: tracks+.cue
Битрейт аудио: lossless
Продолжительность: 01:12:42
Источник (релизер): Рип с диска.
Наличие сканов в содержимом раздачи: нет
Треклист:
01.Perestroika
02.Compañero
03.Cocodì
04.Joséphine Baker
05.My Lai
06.Ababa
07.Au Bal du Village
08.Saharawi
09.La Montagne Pélèe
10.Tarfaya
11.El Comandante
Personnel:
Carlo Actis Dato — b-cl., tenor & bar. saxes;
Piero Ponco — as., piccolo & sopr.-cl.;
Enrico Fazio — ac.bass;
Fiorenzo Sordini — dr., perc.
 
Лог создания рипа
Exact Audio Copy V1.0 beta 3 from 29. August 2011
Отчёт EAC об извлечении, выполненном 14. декабря 2011, 13:47
Carlo Actis Dato Quartet / Swingin' Hanoi
Дисковод: Optiarc DVD RW AD-5200A Adapter: 0 ID: 1
Режим чтения : Достоверность
Использование точного потока : Да
Отключение кэша аудио : Да
Использование указателей C2 : Нет
Коррекция смещения при чтении : 48
Способность читать области Lead-in и Lead-out : Нет
Заполнение пропущенных сэмплов тишиной : Да
Удаление блоков с тишиной в начале и конце : Нет
При вычислениях CRC использовались нулевые сэмплы : Да
Интерфейс : Установленный внешний ASPI-интерфейс
Обработка зазоров : Добавлено к предыдущему треку
Выходной формат : Пользовательский кодировщик
Выбранный битрейт : 128 kBit/s
Качество : Высокий
Добавление ID3-тега : Нет
Утилита сжатия : C:\Program Files\Exact Audio Copy\Flac\flac.exe
Дополнительные параметры : -V -8 -T "Genre=%genre%" -T "Artist=%artist%" -T "Title=%title%" -T "Album=%albumtitle%" -T "Date=%year%" -T "Tracknumber=%tracknr%" -T "Comment=%comment%" %source%
TOC извлечённого CD
Трек | Старт | Длительность | Начальный сектор | Конечный сектор
---------------------------------------------------------------------
1 | 0:00.00 | 5:48.42 | 0 | 26141
2 | 5:48.42 | 7:16.03 | 26142 | 58844
3 | 13:04.45 | 10:04.60 | 58845 | 104204
4 | 23:09.30 | 4:46.55 | 104205 | 125709
5 | 27:56.10 | 5:01.17 | 125710 | 148301
6 | 32:57.27 | 7:34.68 | 148302 | 182419
7 | 40:32.20 | 6:22.67 | 182420 | 211136
8 | 46:55.12 | 6:14.65 | 211137 | 239251
9 | 53:10.02 | 6:00.25 | 239252 | 266276
10 | 59:10.27 | 7:30.50 | 266277 | 300076
11 | 66:41.02 | 5:59.53 | 300077 | 327054
Трек 1
Имя файла F:\2003.Carlo Actis Dato - Swingin' Hanoi\01. Perestroika.wav
Длина предзазора 0:00:02.00
Пиковый уровень 96.6 %
Скорость извлечения 2.4 X
Качество трека 99.9 %
CRC теста E5863ABB
CRC копии E5863ABB
Трек не обнаружен в базе AccurateRip
Копирование... OK
Трек 2
Имя файла F:\2003.Carlo Actis Dato - Swingin' Hanoi\02. Companero.wav
Пиковый уровень 96.6 %
Скорость извлечения 3.0 X
Качество трека 100.0 %
CRC теста 3152F6AD
CRC копии 3152F6AD
Трек не обнаружен в базе AccurateRip
Копирование... OK
Трек 3
Имя файла F:\2003.Carlo Actis Dato - Swingin' Hanoi\03. Cocodi.wav
Пиковый уровень 96.6 %
Скорость извлечения 3.4 X
Качество трека 100.0 %
CRC теста B64E9F8B
CRC копии B64E9F8B
Трек не обнаружен в базе AccurateRip
Копирование... OK
Трек 4
Имя файла F:\2003.Carlo Actis Dato - Swingin' Hanoi\04. Josephine Baker.wav
Пиковый уровень 96.6 %
Скорость извлечения 3.3 X
Качество трека 100.0 %
CRC теста 0A6EA17C
CRC копии 0A6EA17C
Трек не обнаружен в базе AccurateRip
Копирование... OK
Трек 5
Имя файла F:\2003.Carlo Actis Dato - Swingin' Hanoi\05. Mai Lai.wav
Пиковый уровень 96.6 %
Скорость извлечения 3.5 X
Качество трека 100.0 %
CRC теста 1520B485
CRC копии 1520B485
Трек не обнаружен в базе AccurateRip
Копирование... OK
Трек 6
Имя файла F:\2003.Carlo Actis Dato - Swingin' Hanoi\06. Ababa.wav
Пиковый уровень 96.6 %
Скорость извлечения 3.6 X
Качество трека 100.0 %
CRC теста 5F7DCF3C
CRC копии 5F7DCF3C
Трек не обнаружен в базе AccurateRip
Копирование... OK
Трек 7
Имя файла F:\2003.Carlo Actis Dato - Swingin' Hanoi\07. Au Bal Du Village.wav
Пиковый уровень 96.6 %
Скорость извлечения 3.6 X
Качество трека 100.0 %
CRC теста F592A599
CRC копии F592A599
Трек не обнаружен в базе AccurateRip
Копирование... OK
Трек 8
Имя файла F:\2003.Carlo Actis Dato - Swingin' Hanoi\08. Saharawi.wav
Пиковый уровень 96.6 %
Скорость извлечения 3.6 X
Качество трека 100.0 %
CRC теста 94D0C501
CRC копии 94D0C501
Трек не обнаружен в базе AccurateRip
Копирование... OK
Трек 9
Имя файла F:\2003.Carlo Actis Dato - Swingin' Hanoi\09. La Montagne Pelee.wav
Пиковый уровень 96.6 %
Скорость извлечения 3.6 X
Качество трека 100.0 %
CRC теста 5D800D29
CRC копии 5D800D29
Трек не обнаружен в базе AccurateRip
Копирование... OK
Трек 10
Имя файла F:\2003.Carlo Actis Dato - Swingin' Hanoi\10. Tarfaya.wav
Пиковый уровень 96.6 %
Скорость извлечения 3.7 X
Качество трека 100.0 %
CRC теста CDFCC150
CRC копии CDFCC150
Трек не обнаружен в базе AccurateRip
Копирование... OK
Трек 11
Имя файла F:\2003.Carlo Actis Dato - Swingin' Hanoi\11. El Comandante.wav
Пиковый уровень 96.6 %
Скорость извлечения 3.6 X
Качество трека 100.0 %
CRC теста 6289F15D
CRC копии 6289F15D
Трек не обнаружен в базе AccurateRip
Копирование... OK
Ни одного трека нет в базе AccurateRip
Ошибок не произошло
Конец отчёта
==== Контрольная сумма отчёта 723D64E04353A6FA0D4E25989986AB63C34063E554B8F39C0E152E2C30232DCA ====
 
Содержание индексной карты (.CUE)
REM GENRE Jazz
REM DATE 2003
REM DISCID A111080B
REM COMMENT "ExactAudioCopy v1.0b3"
PERFORMER "Carlo Actis Dato Quartet"
TITLE "Swingin' Hanoi"
FILE "01. Perestroika.wav" WAVE
TRACK 01 AUDIO
TITLE "Perestroika"
PERFORMER "Carlo Actis Dato Quartet"
INDEX 01 00:00:00
FILE "02. Companero.wav" WAVE
TRACK 02 AUDIO
TITLE "Companero"
PERFORMER "Carlo Actis Dato Quartet"
INDEX 01 00:00:00
FILE "03. Cocodi.wav" WAVE
TRACK 03 AUDIO
TITLE "Cocodi"
PERFORMER "Carlo Actis Dato Quartet"
INDEX 01 00:00:00
FILE "04. Josephine Baker.wav" WAVE
TRACK 04 AUDIO
TITLE "Josephine Baker"
PERFORMER "Carlo Actis Dato Quartet"
INDEX 01 00:00:00
FILE "05. Mai Lai.wav" WAVE
TRACK 05 AUDIO
TITLE "Mai Lai"
PERFORMER "Carlo Actis Dato Quartet"
INDEX 01 00:00:00
FILE "06. Ababa.wav" WAVE
TRACK 06 AUDIO
TITLE "Ababa"
PERFORMER "Carlo Actis Dato Quartet"
INDEX 01 00:00:00
FILE "07. Au Bal Du Village.wav" WAVE
TRACK 07 AUDIO
TITLE "Au Bal Du Village"
PERFORMER "Carlo Actis Dato Quartet"
INDEX 01 00:00:00
FILE "08. Saharawi.wav" WAVE
TRACK 08 AUDIO
TITLE "Saharawi"
PERFORMER "Carlo Actis Dato Quartet"
INDEX 01 00:00:00
FILE "09. La Montagne Pelee.wav" WAVE
TRACK 09 AUDIO
TITLE "La Montagne Pelee"
PERFORMER "Carlo Actis Dato Quartet"
INDEX 01 00:00:00
FILE "10. Tarfaya.wav" WAVE
TRACK 10 AUDIO
TITLE "Tarfaya"
PERFORMER "Carlo Actis Dato Quartet"
INDEX 01 00:00:00
FILE "11. El Comandante.wav" WAVE
TRACK 11 AUDIO
TITLE "El Comandante"
PERFORMER "Carlo Actis Dato Quartet"
INDEX 01 00:00:00
 
Об альбоме
Если сравнить этот альбом с концертным, о котором пишется рядом, можно сразу признать, чего же в его музыке не хватало. А именно: самоиронии. В этом альбоме ее предостаточно (“Perestroika”, “El Comandante”, “Josephine Baker”). К тому же, и музыка иная, что отражено в названии диска. И, как результат, — совершенно иное впечатление от того, что делает Карло Актис Дато с коллегами. Интересно! Весело! Неожиданно! Не до такой степени, чтобы всю зарплату оставить в магазине, но ирония, юмор в соединении с ощутимой работой ритм-группы и четко продуманной идеей приводят к тому, что эту музыку хочется слушать. Нет, не перед сном и не как фон для возлияний и трапез. Все же «Свингующий Ханой» требует внимания, вашего желания вникнуть в суть. Именно тогда и открывается не то чтобы очарование этой музыки, но ее, безусловно, очень привлекательные стороны.
Два совершенно разных альбома Карло Актиса Дато отлично демонстрируют широту творческих устремлений этого музыканта и одновременно непредсказуемость человека, который явно не желает останавливаться на чем-то одном.Дмитрий ПОДБЕРЕЗСКИЙ
Any questions -> support@pro-jazz.com. По всем вопросам пишите -> support@pro-jazz.com
19:40
220
Нет комментариев. Ваш будет первым!