Вы используете незарегистрированную версию компонента "Вкладки"!

Поиск

(Free Improvisation, Experimental) Gunter Muller, David Gattiker, D.M. Visotzky - Instant Collusion - 1992, FLAC (tracks+.CUE)), lossless

Треклист:
Gunter Muller, David Gattiker, D.M. Visotzky / Instant Collusion
Жанр: Free Improvisation, Experimental
Страна-производитель диска: 1992
Год издания диска: 1992
Издатель (лейбл): For 4 Ears
Номер по каталогу: Switzerland
Аудиокодек: FLAC (*.flac)
Тип рипа: tracks+.CUE
Битрейт аудио: lossless
Продолжительность: 53:01
Источник (релизер): whatcd/szakal
Наличие сканов в содержимом раздачи: да
Треклист:
1. The Stillness Across The River 3:56
2. Let's Eat The Bread Of Idleness 4:02
3. Life Is So Beautiful When You Fall Out Of Bed In The Morning 8:19
4. The Thaw Of Frozen Oscillations 9:08
5. The Panther's Change Of Suit 5:03
6. The Boisterous Boys' Boil 3:23
7. Diary Of A Crazy Man Who Drives Camels Through His Eyes 11:07
8. Before The Dark Face Of Blues 8:02
 
Лог создания рипа
Exact Audio Copy V0.99 prebeta 5 from 4. May 2009
EAC extraction logfile from 2. August 2010, 12:21
Visotzky - Gattiker - Muller / Instant Collusion
Used drive : HL-DT-STDVD-ROM GDR8162B Adapter: 1 ID: 1
Read mode : Secure
Utilize accurate stream : Yes
Defeat audio cache : Yes
Make use of C2 pointers : No
Read offset correction : 102
Overread into Lead-In and Lead-Out : Yes
Fill up missing offset samples with silence : Yes
Delete leading and trailing silent blocks : No
Null samples used in CRC calculations : Yes
Used interface : Installed external ASPI interface
Gap handling : Appended to previous track
Used output format : User Defined Encoder
Selected bitrate : 768 kBit/s
Quality : High
Add ID3 tag : No
Command line compressor : C:\Program Files\FLAC\flac.exe
Additional command line options : -V -8 -T "ARTIST=%a" -T "TITLE=%t" -T "ALBUM=%g" -T "TRACKNUMBER=%n" -T "GENRE=%m" %s
TOC of the extracted CD
Track | Start | Length | Start sector | End sector
---------------------------------------------------------
1 | 0:00.00 | 3:56.62 | 0 | 17761
2 | 3:56.62 | 4:02.00 | 17762 | 35911
3 | 7:58.62 | 8:19.00 | 35912 | 73336
4 | 16:17.62 | 9:08.00 | 73337 | 114436
5 | 25:25.62 | 5:03.00 | 114437 | 137161
6 | 30:28.62 | 3:23.00 | 137162 | 152386
7 | 33:51.62 | 11:07.00 | 152387 | 202411
8 | 44:58.62 | 8:02.13 | 202412 | 238574
Track 1
Filename C:\ru up\Visotzky - Gattiker - Muller - Instant Collusion\01 - The Stillness Across The River.wav
Pre-gap length 0:00:02.00
Peak level 71.0 %
Track quality 100.0 %
Test CRC CA7BDA53
Copy CRC CA7BDA53
Track not present in AccurateRip database
Copy OK
Track 2
Filename C:\ru up\Visotzky - Gattiker - Muller - Instant Collusion\02 - Let's Eat The Bread Of Idleness.wav
Peak level 93.9 %
Track quality 100.0 %
Test CRC 8E6C9588
Copy CRC 8E6C9588
Track not present in AccurateRip database
Copy OK
Track 3
Filename C:\ru up\Visotzky - Gattiker - Muller - Instant Collusion\03 - Life Is So Beautiful When You Fall Out Of Bed In The Morning.wav
Peak level 100.0 %
Track quality 100.0 %
Test CRC FFA61AFB
Copy CRC FFA61AFB
Track not present in AccurateRip database
Copy OK
Track 4
Filename C:\ru up\Visotzky - Gattiker - Muller - Instant Collusion\04 - The Thaw Of Frozen Oscillations.wav
Peak level 100.0 %
Track quality 100.0 %
Test CRC D570D4E7
Copy CRC D570D4E7
Track not present in AccurateRip database
Copy OK
Track 5
Filename C:\ru up\Visotzky - Gattiker - Muller - Instant Collusion\05 - The Panther's Change Of Suit.wav
Peak level 99.7 %
Track quality 100.0 %
Test CRC 9C9A10EE
Copy CRC 9C9A10EE
Track not present in AccurateRip database
Copy OK
Track 6
Filename C:\ru up\Visotzky - Gattiker - Muller - Instant Collusion\06 - The Boisterous Boys' Boil.wav
Peak level 100.0 %
Track quality 100.0 %
Test CRC 5056E25C
Copy CRC 5056E25C
Track not present in AccurateRip database
Copy OK
Track 7
Filename C:\ru up\Visotzky - Gattiker - Muller - Instant Collusion\07 - Diary Of A Crazy Man Who Drives Camels Through His Eyes.wav
Peak level 100.0 %
Track quality 100.0 %
Test CRC 6C3E6C58
Copy CRC 6C3E6C58
Track not present in AccurateRip database
Copy OK
Track 8
Filename C:\ru up\Visotzky - Gattiker - Muller - Instant Collusion\08 - Before The Dark Face Of Blues.wav
Peak level 100.0 %
Track quality 100.0 %
Test CRC 95FB44C3
Copy CRC 95FB44C3
Track not present in AccurateRip database
Copy OK
None of the tracks are present in the AccurateRip database
No errors occurred
End of status report
 
Содержание индексной карты (.CUE)
REM GENRE Electronic
REM DATE 1991
REM DISCID 600C6D08
REM COMMENT "ExactAudioCopy v0.99pb5"
PERFORMER "Visotzky - Gattiker - Muller"
TITLE "Instant Collusion"
FILE "01 - The Stillness Across The River.flac" WAVE
TRACK 01 AUDIO
TITLE "The Stillness Across The River"
PERFORMER "Visotzky - Gattiker - Muller"
INDEX 01 00:00:00
FILE "02 - Let's Eat The Bread Of Idleness.flac" WAVE
TRACK 02 AUDIO
TITLE "Let's Eat The Bread Of Idleness"
PERFORMER "Visotzky - Gattiker - Muller"
INDEX 01 00:00:00
FILE "03 - Life Is So Beautiful When You Fall Out Of Bed In The Morning.flac" WAVE
TRACK 03 AUDIO
TITLE "Life Is So Beautiful When You Fall Out Of Bed In The Morning"
PERFORMER "Visotzky - Gattiker - Muller"
INDEX 01 00:00:00
FILE "04 - The Thaw Of Frozen Oscillations.flac" WAVE
TRACK 04 AUDIO
TITLE "The Thaw Of Frozen Oscillations"
PERFORMER "Visotzky - Gattiker - Muller"
INDEX 01 00:00:00
FILE "05 - The Panther's Change Of Suit.flac" WAVE
TRACK 05 AUDIO
TITLE "The Panther's Change Of Suit"
PERFORMER "Visotzky - Gattiker - Muller"
INDEX 01 00:00:00
FILE "06 - The Boisterous Boys' Boil.flac" WAVE
TRACK 06 AUDIO
TITLE "The Boisterous Boys' Boil"
PERFORMER "Visotzky - Gattiker - Muller"
INDEX 01 00:00:00
FILE "07 - Diary Of A Crazy Man Who Drives Camels Through His Eyes.flac" WAVE
TRACK 07 AUDIO
TITLE "Diary Of A Crazy Man Who Drives Camels Through His Eyes"
PERFORMER "Visotzky - Gattiker - Muller"
INDEX 01 00:00:00
FILE "08 - Before The Dark Face Of Blues.flac" WAVE
TRACK 08 AUDIO
TITLE "Before The Dark Face Of Blues"
PERFORMER "Visotzky - Gattiker - Muller"
INDEX 01 00:00:00
 
Состав
D.M. Visotzky - altosax
David Gattiker - cello
Günter Müller - drums, electronics
По всем вопросам пишите личное сообщение пользователю M0p94ok.
15:51
217
Нет комментариев. Ваш будет первым!