Вы используете незарегистрированную версию компонента "Вкладки"!

Поиск

(Contemporary Jazz / Free Improvisation / Piano) Slawek Jaskulke - Hong Kong - 2009, FLAC (image+.cue), lossless

Треклист:
Slawek Jaskulke / Hong Kong
Жанр: Contemporary Jazz / Free Improvisation / Piano
Страна-производитель диска: Poland
Год издания диска: 2009
Издатель (лейбл): JMJ Marcin Jacobson
Номер по каталогу: JMJ01
Страна: Poland
Аудиокодек: FLAC (*.flac)
Тип рипа: image+.cue
Битрейт аудио: lossless
Продолжительность: 47:23
Источник (релизер): Собственный рип
Наличие сканов в содержимом раздачи: нет
Треклист:
01. Secret Love (Fain/Webster)
02. Cream Group
03. Giant Steps (John Coltrane)
04. I Don't Know What Love Is (Raye/De Paul)
05. My One
06. Moment's Notice (John Coltrane)
07. Ludawka
08. Chopinada
 
Лог создания рипа
Exact Audio Copy V1.0 beta 2 from 29. April 2011
EAC extraction logfile from 10. August 2011, 18:12
Sławek Jaskułke / Hong Kong
Used drive : HL-DT-STDVDRAM GSA-T50N Adapter: 0 ID: 1
Read mode : Secure
Utilize accurate stream : Yes
Defeat audio cache : Yes
Make use of C2 pointers : No
Read offset correction : 667
Overread into Lead-In and Lead-Out : No
Fill up missing offset samples with silence : Yes
Delete leading and trailing silent blocks : No
Null samples used in CRC calculations : Yes
Used interface : Installed external ASPI interface
Used output format : User Defined Encoder
Selected bitrate : 768 kBit/s
Quality : High
Add ID3 tag : No
Command line compressor : C:\Program Files (x86)\Exact Audio Copy\FLAC\FLAC.EXE
Additional command line options : -V -8 -T "Date=%year%" -T "Genre=%genre%" %source%
TOC of the extracted CD
Track | Start | Length | Start sector | End sector
---------------------------------------------------------
1 | 0:00.00 | 6:19.13 | 0 | 28437
2 | 6:19.13 | 7:44.23 | 28438 | 63260
3 | 14:03.36 | 5:08.37 | 63261 | 86397
4 | 19:11.73 | 4:08.38 | 86398 | 105035
5 | 23:20.36 | 5:07.08 | 105036 | 128068
6 | 28:27.44 | 7:45.60 | 128069 | 163003
7 | 36:13.29 | 6:58.21 | 163004 | 194374
8 | 43:11.50 | 4:11.38 | 194375 | 213237
Range status and errors
Selected range
Filename G:\Torrenty\Sławek Jaskułke - Hong Kong (2009)\Sławek Jaskułke - Hong Kong.wav
Peak level 98.8 %
Extraction speed 3.8 X
Range quality 100.0 %
Test CRC 62F87898
Copy CRC 62F87898
Copy OK
No errors occurred
AccurateRip summary
Track 1 not present in database
Track 2 not present in database
Track 3 not present in database
Track 4 not present in database
Track 5 not present in database
Track 6 not present in database
Track 7 not present in database
Track 8 not present in database
None of the tracks are present in the AccurateRip database
End of status report
==== Log checksum 7BB327B6A6F2BAB9098C2BD9E84C2A26FB4F299EAA86B49932E477273AA65CBD ====
 
Содержание индексной карты (.CUE)
REM GENRE "Contemporary Jazz"
REM DATE 2009
REM DISCID 630B1B08
REM COMMENT "ExactAudioCopy v1.0b2"
PERFORMER "Sławek Jaskułke"
TITLE "Hong Kong"
FILE "Sławek Jaskułke - Hong Kong.flac" WAVE
TRACK 01 AUDIO
TITLE "Secret Love"
PERFORMER "Sławek Jaskułke"
INDEX 01 00:00:00
TRACK 02 AUDIO
TITLE "Cream Group"
PERFORMER "Sławek Jaskułke"
INDEX 01 06:19:13
TRACK 03 AUDIO
TITLE "Giant Steps"
PERFORMER "Sławek Jaskułke"
INDEX 01 14:03:36
TRACK 04 AUDIO
TITLE "I Don't Know What Love Is"
PERFORMER "Sławek Jaskułke"
INDEX 01 19:11:73
TRACK 05 AUDIO
TITLE "My Own"
PERFORMER "Sławek Jaskułke"
INDEX 01 23:20:36
TRACK 06 AUDIO
TITLE "Moment's Notice"
PERFORMER "Sławek Jaskułke"
INDEX 01 28:27:44
TRACK 07 AUDIO
TITLE "Ludawka"
PERFORMER "Sławek Jaskułke"
INDEX 01 36:13:29
TRACK 08 AUDIO
TITLE "Chopinada"
PERFORMER "Sławek Jaskułke"
INDEX 01 43:11:50
 
Скриншот спектра частот
По всем вопросам пишите личное сообщение пользователю M0p94ok.
15:52
213
Нет комментариев. Ваш будет первым!