Вы используете незарегистрированную версию компонента "Вкладки"!

Поиск

(Free Improvisation) Evan Parker & Paul Lytton - At the Unity Theatre - 2003 (1975), FLAC (tracks+.cue) lossless

(Free Improvisation) Evan Parker & Paul Lytton - At the Unity Theatre - 2003 (1975), FLAC (tracks+.cue) lossless
Треклист:
Evan Parker & Paul Lytton / At the Unity Theatre
Жанр: Free Improvisation
Страна-производитель диска: Великобритания
Год издания диска: 2003 (1975)
Издатель (лейбл): Psi
Номер по каталогу: 03.01
Страна: Великобритания
Аудио кодек: FLAC (*.flac)
Тип рипа: tracks+.cue
Битрейт аудио: lossless
Продолжительность: 1:08:35
Источник (релизер): вот.сиди (tekknofieber)
Наличие сканов в содержимом раздачи: нет
Треклист:
1 In The Midst Of Laughter And Glee 18:07
2 On Reflection 5:31
3 Mild Steel Rivets For P.H. 14:50
4 The Dirlston Dirler 7:30
5 Through Consensus 18:26
6 To Unity 4:03
7 Bonus Track 0:08
Recorded at Unity Theatre London on 7/1/1975.
Reissue of LP 14 plus 22 minutes of extra material
 
Лог создания рипа
Exact Audio Copy V1.0 beta 1 from 15. November 2010
EAC extraction logfile from 9. February 2011, 15:06
Evan Parker & Paul Lytton / At The Unity Theatre
Used drive : PIONEER DVDRW DVR-K17B Adapter: 1 ID: 0
Read mode : Secure
Utilize accurate stream : Yes
Defeat audio cache : Yes
Make use of C2 pointers : No
Read offset correction : 48
Overread into Lead-In and Lead-Out : No
Fill up missing offset samples with silence : Yes
Delete leading and trailing silent blocks : No
Null samples used in CRC calculations : No
Used interface : Native Win32 interface for Win NT & 2000
Gap handling : Appended to previous track
Used output format : User Defined Encoder
Selected bitrate : 192 kBit/s
Quality : High
Add ID3 tag : No
Command line compressor : C:\Program Files\Exact Audio Copy\FLAC\FLAC.EXE
Additional command line options : -V -8 -T "artist=%a" -T "title=%t" -T "album=%g" -T "date=%y" -T "tracknumber=%n" -T "genre=%m" %s
TOC of the extracted CD
Track | Start | Length | Start sector | End sector
---------------------------------------------------------
1 | 0:00.00 | 18:07.09 | 0 | 81533
2 | 18:07.09 | 5:30.66 | 81534 | 106349
3 | 23:38.00 | 14:49.61 | 106350 | 173085
4 | 38:27.61 | 7:29.43 | 173086 | 206803
5 | 45:57.29 | 18:26.28 | 206804 | 289781
6 | 64:23.57 | 4:02.74 | 289782 | 308005
7 | 68:26.56 | 0:08.13 | 308006 | 308618
Track 1
Filename C:\New Folder\Evan Parker & Paul Lytton - 2003 - At The Unity Theatre [FLAC]\01 - In The Midst Of Laughter And Glee.wav
Pre-gap length 0:00:02.00
Peak level 98.8 %
Extraction speed 2.6 X
Track quality 100.0 %
Test CRC 2B0C4395
Copy CRC 2B0C4395
Track not present in AccurateRip database
Copy OK
Track 2
Filename C:\New Folder\Evan Parker & Paul Lytton - 2003 - At The Unity Theatre [FLAC]\02 - On Reflection.wav
Pre-gap length 0:00:08.00
Peak level 66.8 %
Extraction speed 2.9 X
Track quality 100.0 %
Test CRC DB8058F9
Copy CRC DB8058F9
Track not present in AccurateRip database
Copy OK
Track 3
Filename C:\New Folder\Evan Parker & Paul Lytton - 2003 - At The Unity Theatre [FLAC]\03 - Mild Steel Rivets For PH.wav
Pre-gap length 0:00:08.00
Peak level 98.9 %
Extraction speed 3.5 X
Track quality 100.0 %
Test CRC 64BFB586
Copy CRC 64BFB586
Track not present in AccurateRip database
Copy OK
Track 4
Filename C:\New Folder\Evan Parker & Paul Lytton - 2003 - At The Unity Theatre [FLAC]\04 - The Dirlston Dirler.wav
Pre-gap length 0:00:08.00
Peak level 75.7 %
Extraction speed 3.7 X
Track quality 100.0 %
Test CRC DFDD254E
Copy CRC DFDD254E
Track not present in AccurateRip database
Copy OK
Track 5
Filename C:\New Folder\Evan Parker & Paul Lytton - 2003 - At The Unity Theatre [FLAC]\05 - Through Consensus.wav
Pre-gap length 0:00:08.00
Peak level 98.8 %
Extraction speed 4.3 X
Track quality 100.0 %
Test CRC 2BAFB2AE
Copy CRC 2BAFB2AE
Track not present in AccurateRip database
Copy OK
Track 6
Filename C:\New Folder\Evan Parker & Paul Lytton - 2003 - At The Unity Theatre [FLAC]\06 - To Unity.wav
Pre-gap length 0:00:08.00
Peak level 97.8 %
Extraction speed 4.1 X
Track quality 100.0 %
Test CRC 979972C3
Copy CRC 979972C3
Track not present in AccurateRip database
Copy OK
Track 7
Filename C:\New Folder\Evan Parker & Paul Lytton - 2003 - At The Unity Theatre [FLAC]\07 - Untitled.wav
Pre-gap length 0:00:08.00
Peak level 13.1 %
Extraction speed 0.7 X
Track quality 100.0 %
Test CRC 0E63B9D5
Copy CRC 0E63B9D5
Track not present in AccurateRip database
Copy OK
None of the tracks are present in the AccurateRip database
No errors occurred
End of status report
 
Содержание индексной карты (.CUE)
REM GENRE Jazz
REM DATE 2003
REM DISCID 63101207
REM COMMENT "ExactAudioCopy v1.0b1"
PERFORMER "Evan Parker & Paul Lytton"
TITLE "At The Unity Theatre"
FILE "Evan Parker & Paul Lytton - 2003 - At The Unity Theatre [FLAC]\01 - In The Midst Of Laughter And Glee.wav" WAVE
TRACK 01 AUDIO
TITLE "In The Midst Of Laughter And Glee"
PERFORMER "Evan Parker & Paul Lytton"
INDEX 01 00:00:00
TRACK 02 AUDIO
TITLE "On Reflection"
PERFORMER "Evan Parker & Paul Lytton"
INDEX 00 17:59:09
FILE "Evan Parker & Paul Lytton - 2003 - At The Unity Theatre [FLAC]\02 - On Reflection.wav" WAVE
INDEX 01 00:00:00
TRACK 03 AUDIO
TITLE "Mild Steel Rivets For PH"
PERFORMER "Evan Parker & Paul Lytton"
INDEX 00 05:22:66
FILE "Evan Parker & Paul Lytton - 2003 - At The Unity Theatre [FLAC]\03 - Mild Steel Rivets For PH.wav" WAVE
INDEX 01 00:00:00
TRACK 04 AUDIO
TITLE "The Dirlston Dirler"
PERFORMER "Evan Parker & Paul Lytton"
INDEX 00 14:41:61
FILE "Evan Parker & Paul Lytton - 2003 - At The Unity Theatre [FLAC]\04 - The Dirlston Dirler.wav" WAVE
INDEX 01 00:00:00
TRACK 05 AUDIO
TITLE "Through Consensus"
PERFORMER "Evan Parker & Paul Lytton"
INDEX 00 07:21:43
FILE "Evan Parker & Paul Lytton - 2003 - At The Unity Theatre [FLAC]\05 - Through Consensus.wav" WAVE
INDEX 01 00:00:00
TRACK 06 AUDIO
TITLE "To Unity"
PERFORMER "Evan Parker & Paul Lytton"
INDEX 00 18:18:28
FILE "Evan Parker & Paul Lytton - 2003 - At The Unity Theatre [FLAC]\06 - To Unity.wav" WAVE
INDEX 01 00:00:00
TRACK 07 AUDIO
TITLE "Untitled"
PERFORMER "Evan Parker & Paul Lytton"
INDEX 00 03:54:74
FILE "Evan Parker & Paul Lytton - 2003 - At The Unity Theatre [FLAC]\07 - Untitled.wav" WAVE
INDEX 01 00:00:00
 
Лог проверки качества
AUDIOCHECKER v2.0 beta (build 457) - by Dester - opdester@freemail.hu
~~~~~~~~~~~~~~~~~~~~~~~~~~~~~~~~~~
-=== DO NOT EDIT THIS FILE! ===-
Path: ...\Evan Parker & Paul Lytton - 2003 - At The Unity Theatre [FLAC]
1 -=- 01 - In The Midst Of Laughter And Glee.flac -=- CDDA (100%)
2 -=- 02 - On Reflection.flac -=- CDDA (100%)
3 -=- 03 - Mild Steel Rivets For PH.flac -=- CDDA (100%)
4 -=- 04 - The Dirlston Dirler.flac -=- CDDA (100%)
5 -=- 05 - Through Consensus.flac -=- CDDA (100%)
6 -=- 06 - To Unity.flac -=- CDDA (100%)
7 -=- 07 - Untitled.flac -=- CDDA (100%)
Summary 100,00% CDDA
125734884
 
Состав
Paul Lytton percussion, live electronics, voice
Evan Parker soprano saxophone, tenor saxophone, Lyttonophone, drums [pole], bullroarer, cassettes
По всем вопросам пишите личное сообщение пользователю M0p94ok.
08:38
221
Нет комментариев. Ваш будет первым!