Вы используете незарегистрированную версию компонента "Вкладки"!

Поиск

(Avant-Garde Jazz, Free Jazz) David Murray — Children (1984) — 1986, FLAC (tracks+.cue) lossless

Треклист:
David Murray — Children (1984)
Жанр: Avant-Garde Jazz, Free Jazz
Год издания диска: 1986
Лейбл: Black Saint
Номер по каталогу: 120089-2
Аудио кодек: FLAC (*.flac)
Тип рипа: tracks+.cue
Битрейт аудио: lossless
Продолжительность: 42:34
Релизер: GatoMedio
Сканы есть
Треклист:
01. David - Mingus (11:49)
02. Death (7:21)
03. All The Things You Are (15:02)
04. Tension (8:23)
Personnel:
David Murray - ts, bcl
James "Blood" Ulmer - el-g
Don Pullen - p
Lonnie Plaxico - b
Marvin "Smitty" Smith - d
Rec.: Vanguard Studios, New York City, NY, October 27 and November 15, 1984.
 
 
Лог создания рипа
Exact Audio Copy V0.99 prebeta 5 from 4. May 2009
EAC extraction logfile from 4. February 2011, 16:52
David Murray / Children
Used drive : HL-DT-STDVD-RAM GSA-H55N Adapter: 0 ID: 0
Read mode : Secure
Utilize accurate stream : Yes
Defeat audio cache : Yes
Make use of C2 pointers : No
Read offset correction : 102
Overread into Lead-In and Lead-Out : No
Fill up missing offset samples with silence : Yes
Delete leading and trailing silent blocks : No
Null samples used in CRC calculations : Yes
Used interface : Native Win32 interface for Win NT & 2000
Gap handling : Appended to previous track
Used output format : Internal WAV Routines
Sample format : 44.100 Hz; 16 Bit; Stereo
TOC of the extracted CD
Track | Start | Length | Start sector | End sector
---------------------------------------------------------
1 | 0:00.00 | 11:49.37 | 0 | 53211
2 | 11:49.37 | 7:20.40 | 53212 | 86251
3 | 19:10.02 | 15:01.43 | 86252 | 153869
4 | 34:11.45 | 8:22.62 | 153870 | 191581
Track 1
Filename D:\_Music myRips\David Murray - Children (1985)\David Murray - Children (wav)\01 - David - Mingus.wav
Pre-gap length 0:00:02.00
Peak level 100.0 %
Track quality 100.0 %
Test CRC 566470BB
Copy CRC 566470BB
Track not present in AccurateRip database
Copy OK
Track 2
Filename D:\_Music myRips\David Murray - Children (1985)\David Murray - Children (wav)\02 - Death.wav
Peak level 77.6 %
Track quality 100.0 %
Test CRC 822F1E10
Copy CRC 822F1E10
Track not present in AccurateRip database
Copy OK
Track 3
Filename D:\_Music myRips\David Murray - Children (1985)\David Murray - Children (wav)\03 - All The Things You Are.wav
Peak level 87.1 %
Track quality 100.0 %
Test CRC 08AA2FF6
Copy CRC 08AA2FF6
Track not present in AccurateRip database
Copy OK
Track 4
Filename D:\_Music myRips\David Murray - Children (1985)\David Murray - Children (wav)\04 - Tension.wav
Peak level 82.6 %
Track quality 100.0 %
Test CRC 6700647A
Copy CRC 6700647A
Track not present in AccurateRip database
Copy OK
None of the tracks are present in the AccurateRip database
No errors occurred
End of status report
 
Содержание индексной карты (.CUE)
REM DISCID 1E09FA04
REM COMMENT "ExactAudioCopy v0.99pb5"
PERFORMER "David Murray"
TITLE "Children"
FILE "01 - David - Mingus.wav" WAVE
TRACK 01 AUDIO
TITLE "David - Mingus"
PERFORMER "David Murray"
INDEX 01 00:00:00
FILE "02 - Death.wav" WAVE
TRACK 02 AUDIO
TITLE "Death"
PERFORMER "David Murray"
INDEX 01 00:00:00
FILE "03 - All The Things You Are.wav" WAVE
TRACK 03 AUDIO
TITLE "All The Things You Are"
PERFORMER "David Murray"
INDEX 01 00:00:00
FILE "04 - Tension.wav" WAVE
TRACK 04 AUDIO
TITLE "Tension"
PERFORMER "David Murray"
INDEX 01 00:00:00
По всем вопросам пишите личное сообщение пользователю M0p94ok.
08:38
199
Нет комментариев. Ваш будет первым!