Вы используете незарегистрированную версию компонента "Вкладки"!

Поиск

(Free Improvisation, Electroacoustic, Rune Grammofon) [CD] Supersilent - 12 - 2014, FLAC (tracks), lossless

(Free Improvisation, Electroacoustic, Rune Grammofon) [CD] Supersilent - 12 - 2014, FLAC (tracks), lossless
Треклист:
Supersilent / 12
Жанр: Free Improvisation, Electroacoustic
Страна-производитель диска: Norway
Год издания: 2014
Издатель (лейбл): Rune Grammofon
Страна исполнителя (группы): Norway
Аудиокодек: FLAC (*.flac)
Тип рипа: tracks
Битрейт аудио: lossless
Продолжительность: 00:44:00
Источник (релизер): exystence musical blog
Наличие сканов в содержимом раздачи: нет
Треклист:
12.1 - 12.13
 
Лог создания рипа
X Lossless Decoder version 20140504 (147.0)
XLD extraction logfile from 2014-09-28 00:17:53 +0200
Supersilent / 12
Used drive : HL-DT-ST DVDRW GS23N (revision SB00)
Media type : Pressed CD
Ripper mode : XLD Secure Ripper
Disable audio cache : OK for the drive with a cache less than 1375KiB
Make use of C2 pointers : NO
Read offset correction : 667
Max retry count : 20
Gap status : Analyzed, Appended (except HTOA)
TOC of the extracted CD
Track | Start | Length | Start sector | End sector
---------------------------------------------------------
1 | 00:00:00 | 02:50:71 | 0 | 12820
2 | 02:50:71 | 03:37:56 | 12821 | 29151
3 | 06:28:52 | 02:30:14 | 29152 | 40415
4 | 08:58:66 | 04:32:74 | 40416 | 60889
5 | 13:31:65 | 02:59:34 | 60890 | 74348
6 | 16:31:24 | 03:05:65 | 74349 | 88288
7 | 19:37:14 | 04:47:74 | 88289 | 109887
8 | 24:25:13 | 01:32:58 | 109888 | 116845
9 | 25:57:71 | 03:36:38 | 116846 | 133083
10 | 29:34:34 | 02:54:70 | 133084 | 146203
11 | 32:29:29 | 03:31:65 | 146204 | 162093
12 | 36:01:19 | 01:31:71 | 162094 | 168989
13 | 37:33:15 | 05:49:64 | 168990 | 195228
AccurateRip Summary
Disc not found in AccurateRip DB.
All Tracks
Album gain : -3.95 dB
Peak : 0.939972
Statistics
Read error : 0
Jitter error (maybe fixed) : 0
Retry sector count : 0
Damaged sector count : 0
Track 01
Filename : /rips/Supersilent - 12 (2014) [FLAC]/01 12.1.flac
Pre-gap length : 00:02:00
Track gain : 0.33 dB
Peak : 0.919159
CRC32 hash (test run) : 23D895C3
CRC32 hash : 23D895C3
CRC32 hash (skip zero) : CE3E5005
AccurateRip v1 signature : D4987837
AccurateRip v2 signature : DF802E09
->Track not present in AccurateRip database.
Statistics
Read error : 0
Jitter error (maybe fixed) : 0
Retry sector count : 0
Damaged sector count : 0
Track 02
Filename : /rips/Supersilent - 12 (2014) [FLAC]/02 12.2.flac
Track gain : -3.83 dB
Peak : 0.862335
CRC32 hash (test run) : 584A59C9
CRC32 hash : 584A59C9
CRC32 hash (skip zero) : 30944215
AccurateRip v1 signature : 96B81B80
AccurateRip v2 signature : 34CABB42
->Track not present in AccurateRip database.
Statistics
Read error : 0
Jitter error (maybe fixed) : 0
Retry sector count : 0
Damaged sector count : 0
Track 03
Filename : /rips/Supersilent - 12 (2014) [FLAC]/03 12.3.flac
Track gain : 0.68 dB
Peak : 0.740601
CRC32 hash (test run) : 0C88E95C
CRC32 hash : 0C88E95C
CRC32 hash (skip zero) : 9D983507
AccurateRip v1 signature : C40CE082
AccurateRip v2 signature : 3980D8D5
->Track not present in AccurateRip database.
Statistics
Read error : 0
Jitter error (maybe fixed) : 0
Retry sector count : 0
Damaged sector count : 0
Track 04
Filename : /rips/Supersilent - 12 (2014) [FLAC]/04 12.4.flac
Track gain : -4.39 dB
Peak : 0.926453
CRC32 hash (test run) : 450399BA
CRC32 hash : 450399BA
CRC32 hash (skip zero) : 2DE8BFB5
AccurateRip v1 signature : 83BDC5A7
AccurateRip v2 signature : BF30F7BD
->Track not present in AccurateRip database.
Statistics
Read error : 0
Jitter error (maybe fixed) : 0
Retry sector count : 0
Damaged sector count : 0
Track 05
Filename : /rips/Supersilent - 12 (2014) [FLAC]/05 12.5.flac
Track gain : 3.09 dB
Peak : 0.516388
CRC32 hash (test run) : 56BECC3E
CRC32 hash : 56BECC3E
CRC32 hash (skip zero) : 692B2E05
AccurateRip v1 signature : 063C4CD7
AccurateRip v2 signature : 064EFC49
->Track not present in AccurateRip database.
Statistics
Read error : 0
Jitter error (maybe fixed) : 0
Retry sector count : 0
Damaged sector count : 0
Track 06
Filename : /rips/Supersilent - 12 (2014) [FLAC]/06 12.6.flac
Track gain : -5.88 dB
Peak : 0.916962
CRC32 hash (test run) : 9667C30A
CRC32 hash : 9667C30A
CRC32 hash (skip zero) : B78E7714
AccurateRip v1 signature : DEC8261E
AccurateRip v2 signature : EA651D1B
->Track not present in AccurateRip database.
Statistics
Read error : 0
Jitter error (maybe fixed) : 0
Retry sector count : 0
Damaged sector count : 0
Track 07
Filename : /rips/Supersilent - 12 (2014) [FLAC]/07 12.7.flac
Track gain : -3.52 dB
Peak : 0.889221
CRC32 hash (test run) : 40B8417D
CRC32 hash : 40B8417D
CRC32 hash (skip zero) : 664EBCBC
AccurateRip v1 signature : C10D6F05
AccurateRip v2 signature : 6790870B
->Track not present in AccurateRip database.
Statistics
Read error : 0
Jitter error (maybe fixed) : 0
Retry sector count : 0
Damaged sector count : 0
Track 08
Filename : /rips/Supersilent - 12 (2014) [FLAC]/08 12.8.flac
Track gain : 1.27 dB
Peak : 0.597076
CRC32 hash (test run) : 54D8DF99
CRC32 hash : 54D8DF99
CRC32 hash (skip zero) : DC221E31
AccurateRip v1 signature : 3D6CF5AE
AccurateRip v2 signature : 6F89B28F
->Track not present in AccurateRip database.
Statistics
Read error : 0
Jitter error (maybe fixed) : 0
Retry sector count : 0
Damaged sector count : 0
Track 09
Filename : /rips/Supersilent - 12 (2014) [FLAC]/09 12.9.flac
Track gain : -4.16 dB
Peak : 0.916382
CRC32 hash (test run) : 44F92394
CRC32 hash : 44F92394
CRC32 hash (skip zero) : BB3F4D2F
AccurateRip v1 signature : 3ED03356
AccurateRip v2 signature : 199D99EC
->Track not present in AccurateRip database.
Statistics
Read error : 0
Jitter error (maybe fixed) : 0
Retry sector count : 0
Damaged sector count : 0
Track 10
Filename : /rips/Supersilent - 12 (2014) [FLAC]/10 12.10.flac
Track gain : 3.66 dB
Peak : 0.934326
CRC32 hash (test run) : 146A6231
CRC32 hash : 146A6231
CRC32 hash (skip zero) : DAAF57F3
AccurateRip v1 signature : 6104ABE3
AccurateRip v2 signature : 8D7CCD29
->Track not present in AccurateRip database.
Statistics
Read error : 0
Jitter error (maybe fixed) : 0
Retry sector count : 0
Damaged sector count : 0
Track 11
Filename : /rips/Supersilent - 12 (2014) [FLAC]/11 12.11.flac
Track gain : -5.62 dB
Peak : 0.939056
CRC32 hash (test run) : D29AEE9D
CRC32 hash : D29AEE9D
CRC32 hash (skip zero) : 5717FDFA
AccurateRip v1 signature : 0F8899A8
AccurateRip v2 signature : 18C06BE9
->Track not present in AccurateRip database.
Statistics
Read error : 0
Jitter error (maybe fixed) : 0
Retry sector count : 0
Damaged sector count : 0
Track 12
Filename : /rips/Supersilent - 12 (2014) [FLAC]/12 12.12.flac
Track gain : -3.37 dB
Peak : 0.812866
CRC32 hash (test run) : 215A9AAD
CRC32 hash : 215A9AAD
CRC32 hash (skip zero) : 2219D308
AccurateRip v1 signature : BD1F9C38
AccurateRip v2 signature : F869D1F5
->Track not present in AccurateRip database.
Statistics
Read error : 0
Jitter error (maybe fixed) : 0
Retry sector count : 0
Damaged sector count : 0
Track 13
Filename : /rips/Supersilent - 12 (2014) [FLAC]/13 12.13.flac
Track gain : -4.87 dB
Peak : 0.939972
CRC32 hash (test run) : 2AEFF03F
CRC32 hash : 2AEFF03F
CRC32 hash (skip zero) : FF9E9CA6
AccurateRip v1 signature : 7E27FDE7
AccurateRip v2 signature : 8671635B
->Track not present in AccurateRip database.
Statistics
Read error : 0
Jitter error (maybe fixed) : 0
Retry sector count : 0
Damaged sector count : 0
No errors occurred
End of status report
-----BEGIN XLD SIGNATURE-----
aESdYpZDuC4vhb81xdIL6GbXEPxLxJTaCqCeLTRiU8MijcoYoRqr7COSlAQAzVYszos45Z6NcS8ZPeDOhrjmaz3sdp5EhCdNO1zlM_4
-----END XLD SIGNATURE-----
По всем вопросам пишите личное сообщение пользователю M0p94ok.
04:57
169
Нет комментариев. Ваш будет первым!