Поиск

(Avant-Garde Jazz, Modal Music, Post-Bop) [CD] John Coltrane Quartet - Crescent - 1964 (1996), FLAC (tracks+.cue), lossless

(Avant-Garde Jazz, Modal Music, Post-Bop) [CD] John Coltrane Quartet - Crescent - 1964 (1996), FLAC (tracks+.cue), lossless
John Coltrane Quartet - Crescent
Жанр: Avant-Garde Jazz, Modal Music, Post-Bop
Носитель: CD
Страна-производитель диска: США
Год издания: 1996
Издатель (лейбл): Impulse!
Номер по каталогу: IMPD-200
Аудиокодек: FLAC (*.flac)
Тип рипа: tracks+.cue
Битрейт аудио: lossless
Продолжительность: 40:33
Источник (релизер): aet (what)
Наличие сканов в содержимом раздачи: сетевые
Треклист:
01. Crescent (Coltrane) - 8:44
02. Wise One (Coltrane) - 9:04
03. Bessie's Blues (Coltrane) - 3:35
04. Lonnie's Lament (Coltrane) - 11:48
05. The Drum Thing (Coltrane) - 7:22
Состав:
John Coltrane - tenor saxophone
McCoy Tyner - piano
Jimmy Garrison - bass
Elvin Jones - drums
Recorded at the Van Gelder Studio, Englewood Cliffs, NJ on April 27 (#2,4,5) and June 1 (#1,3), 1964.
 
Лог создания рипа
Exact Audio Copy V0.99 prebeta 3 from 28. July 2007
EAC extraction logfile from 15. May 2009, 1:36
John Coltrane / Crescent
Used drive : TSSTcorpDVD+-RW TS-L632H Adapter: 1 ID: 0
Read mode : Secure
Utilize accurate stream : Yes
Defeat audio cache : Yes
Make use of C2 pointers : No
Read offset correction : 6
Overread into Lead-In and Lead-Out : No
Fill up missing offset samples with silence : Yes
Delete leading and trailing silent blocks : No
Null samples used in CRC calculations : Yes
Used interface : Native Win32 interface for Win NT & 2000
Gap handling : Appended to previous track
Used output format : User Defined Encoder
Selected bitrate : 128 kBit/s
Quality : High
Add ID3 tag : No
Command line compressor : C:\Program Files\Exact Audio Copy\Flac\flac.exe
Additional command line options : -V -8 -T "artist=%a" -T "title=%t" -T "album=%g" -T "date=%y" -T "tracknumber=%n" -T "genre=%m" %s
TOC of the extracted CD
Track | Start | Length | Start sector | End sector
---------------------------------------------------------
1 | 0:00.00 | 8:44.22 | 0 | 39321
2 | 8:44.22 | 9:03.70 | 39322 | 80116
3 | 17:48.17 | 3:34.40 | 80117 | 96206
4 | 21:22.57 | 11:47.53 | 96207 | 149284
5 | 33:10.35 | 7:22.35 | 149285 | 182469
Track 1
Filename C:\EAC Rips\John Coltrane - 1964 - Crescent\01 - Crescent.wav
Pre-gap length 0:00:02.00
Peak level 95.9 %
Track quality 99.9 %
Test CRC 6E7D1270
Copy CRC 6E7D1270
Accurately ripped (confidence 17) [36FE59AB]
Copy OK
Track 2
Filename C:\EAC Rips\John Coltrane - 1964 - Crescent\02 - Wise One.wav
Pre-gap length 0:00:02.42
Peak level 99.2 %
Track quality 99.9 %
Test CRC 00C1A214
Copy CRC 00C1A214
Accurately ripped (confidence 15) [E9147C11]
Copy OK
Track 3
Filename C:\EAC Rips\John Coltrane - 1964 - Crescent\03 - Bessie's Blues.wav
Pre-gap length 0:00:02.42
Peak level 91.9 %
Track quality 99.9 %
Test CRC 6D493F32
Copy CRC 6D493F32
Accurately ripped (confidence 16) [8B03CE53]
Copy OK
Track 4
Filename C:\EAC Rips\John Coltrane - 1964 - Crescent\04 - Lonnie's Lament.wav
Pre-gap length 0:00:02.40
Peak level 98.4 %
Track quality 100.0 %
Test CRC 0B664186
Copy CRC 0B664186
Accurately ripped (confidence 16) [4FA12A62]
Copy OK
Track 5
Filename C:\EAC Rips\John Coltrane - 1964 - Crescent\05 - The Drum Thing.wav
Pre-gap length 0:00:02.43
Peak level 99.5 %
Track quality 100.0 %
Test CRC 72CE857A
Copy CRC 72CE857A
Accurately ripped (confidence 15) [09B542B8]
Copy OK
All tracks accurately ripped
No errors occurred
End of status report
 
Содержание индексной карты (.CUE)
REM GENRE Jazz
REM DATE 1964
REM DISCID 3B098005
REM COMMENT "ExactAudioCopy v0.99pb3"
PERFORMER "John Coltrane"
TITLE "Crescent"
FILE "01 - Crescent.wav" WAVE
TRACK 01 AUDIO
TITLE "Crescent"
PERFORMER "John Coltrane"
INDEX 01 00:00:00
TRACK 02 AUDIO
TITLE "Wise One"
PERFORMER "John Coltrane"
INDEX 00 08:41:55
FILE "02 - Wise One.wav" WAVE
INDEX 01 00:00:00
TRACK 03 AUDIO
TITLE "Bessie's Blues"
PERFORMER "John Coltrane"
INDEX 00 09:01:28
FILE "03 - Bessie's Blues.wav" WAVE
INDEX 01 00:00:00
TRACK 04 AUDIO
TITLE "Lonnie's Lament"
PERFORMER "John Coltrane"
INDEX 00 03:32:00
FILE "04 - Lonnie's Lament.wav" WAVE
INDEX 01 00:00:00
TRACK 05 AUDIO
TITLE "The Drum Thing"
PERFORMER "John Coltrane"
INDEX 00 11:45:10
FILE "05 - The Drum Thing.wav" WAVE
INDEX 01 00:00:00
 
Отчет CUETools
[CUETools log; Date: 04.10.2014 0:01:35; Version: 2.1.5]
[CTDB TOCID: Fl.zuBZzMaT6WmJf78R_VDXKGyg-] found.
Track | CTDB Status
1 | (5/5) Accurately ripped
2 | (5/5) Accurately ripped
3 | (5/5) Accurately ripped
4 | (5/5) Accurately ripped
5 | (5/5) Accurately ripped
[AccurateRip ID: 00085a49-0026d5ad-3b098005] found.
Track [ CRC | V2 ] Status
01 [36fe59ab|93087db6] (26+20/49) Accurately ripped
02 [e9147c11|8178585b] (24+20/47) Accurately ripped
03 [8b03ce53|bb1be8bd] (25+20/48) Accurately ripped
04 [4fa12a62|5f058d86] (25+20/48) Accurately ripped
05 [09b542b8|2af1a01e] (24+20/47) Accurately ripped
Offsetted by 61:
01 [c12eb8ea] (03/49) Accurately ripped
02 [6fd7c683] (03/47) Accurately ripped
03 [144933e8] (03/48) Accurately ripped
04 [6f15ecb1] (03/48) Accurately ripped
05 [629e5a5d] (03/47) Accurately ripped
Track Peak [ CRC32 ] [W/O NULL] [ LOG ]
-- 99,5 [E85CA96E] [AB53B7A6]
01 95,9 [6E7D1270] [5AB2D0F6] CRC32
02 99,2 [00C1A214] [DD657224] CRC32
03 91,9 [6D493F32] [D3A348B1] CRC32
04 98,4 [0B664186] [83EBAB78] CRC32
05 99,5 [72CE857A] [F83A9668] CRC32
 
Review by Michael G. Nastos
John Coltrane's Crescent from the spring of 1964 is an epic album, showing his meditative side that would serve as a perfect prelude to his immortal work A Love Supreme. His finest quartet with McCoy Tyner, Jimmy Garrison, and Elvin Jones supports the somewhat softer side of Coltrane, and while not completely in ballad style, the focus and accessible tone of this recording work wonders for anyone willing to sit back and let this music enrich and wash over you. While not quite at the "sheets of sound" unfettered music he would make before his passing in 1967, there are hints of this group stretching out in restrained dynamics, playing as lovely a progressive jazz as heard anywhere in any time period. The highlights come at the top with the reverent, ruminating, and free ballad "Crescent," with a patient Coltrane acquiescing to swinging, while the utterly beautiful "Wise One" is accented by the delicate and chime-like musings of Tyner with a deeply hued tenor from Coltrane unrushed even in a slight Latin rhythm. These are the ultimate spiritual songs, and ultimately two of the greatest in Coltrane's storied career. But "Bessie's Blues" and "Lonnie's Lament" are just as revered in the sense that they are covered by jazz musicians worldwide, the former a hard bop wonder with a classic short repeat chorus, the latter one of the most somber, sad jazz ballad reflections in a world full of injustice and unfairness -- the ultimate eulogy. Garrison and especially Jones are put through their emotional paces, but on the finale "The Drum Thing," the African-like tom-tom sounds extracted by Jones with Coltrane's sighing tenor, followed by some truly amazing case study-frantic snare drumming, makes it one to be revisited. In the liner notes, a quote from Leroi Jones/Amiri Baraka states John Coltrane was "daringly human," and no better example of this quality transferred to musical endeavor is available than on this definitive, must have album that encompasses all that he was and eventually would become.
04:58
284
Нет комментариев. Ваш будет первым!