Вы используете незарегистрированную версию компонента "Вкладки"!

Поиск

(Free Improvisation, EAI) 中村としまる (Toshimaru Nakamura) | John Butcher - Dusted Machinery - 2011, FLAC (tracks+.cue), lossless

(Free Improvisation, EAI) 中村としまる (Toshimaru Nakamura) | John Butcher - Dusted Machinery - 2011, FLAC (tracks+.cue), lossless
Треклист:
Toshimaru Nakamura | John Butcher / Dusted Machinery
Жанр: Free Improvisation, EAI
Страна-производитель диска: Польша
Год издания диска: 2011
Издатель (лейбл): Monotype Records
Номер по каталогу: mono041
Страна: Япония, Великобритания
Аудиокодек: FLAC (*.flac)
Тип рипа: tracks+.cue
Битрейт аудио: lossless
Продолжительность: 44:00
Источник (релизер): вот.сиди (ephexis)
Наличие сканов в содержимом раздачи: нет
Треклист:
1. Leaven (9:53)
2. Maku (12:04)
3. Knead (10:12)
4. Nobasu (11:51)
Recorded in London, 18 March 2009
 
Лог создания рипа
Exact Audio Copy V1.0 beta 3 from 29. August 2011
EAC extraction logfile from 2. March 2012, 9:11
Toshimaru Nakamura & John Butcher / Dusted Machinery
Used drive : Optiarc DVD RW AD-7260S Adapter: 0 ID: 1
Read mode : Secure
Utilize accurate stream : Yes
Defeat audio cache : Yes
Make use of C2 pointers : No
Read offset correction : 48
Overread into Lead-In and Lead-Out : No
Fill up missing offset samples with silence : Yes
Delete leading and trailing silent blocks : No
Null samples used in CRC calculations : Yes
Used interface : Native Win32 interface for Win NT & 2000
Gap handling : Appended to previous track
Used output format : User Defined Encoder
Selected bitrate : 1024 kBit/s
Quality : High
Add ID3 tag : No
Command line compressor : C:\Program Files (x86)\Exact Audio Copy\Flac\flac.exe
Additional command line options : -8 -V -T "ARTIST=%artist%" -T "TITLE=%title%" -T "ALBUM=%albumtitle%" -T "DATE=%year%" -T "TRACKNUMBER=%tracknr%" -T "GENRE=%genre%" -T "PERFORMER=%albuminterpret%" -T "COMPOSER=%composer%" %haslyrics%--tag-from-file=LYRICS="%lyricsfile%"%haslyrics% -T "ALBUMARTIST=%albumartist%" -T "DISCNUMBER=%cdnumber%" -T "TOTALDISCS=%totalcds%" -T "TOTALTRACKS=%numtracks%" -T "COMMENT=%comment%" %source% -o %dest%
TOC of the extracted CD
Track | Start | Length | Start sector | End sector
---------------------------------------------------------
1 | 0:00.00 | 9:53.19 | 0 | 44493
2 | 9:53.19 | 12:03.72 | 44494 | 98790
3 | 21:57.16 | 10:11.61 | 98791 | 144676
4 | 32:09.02 | 11:51.05 | 144677 | 198006
Track 1
Filename D:\Media\Rips\Toshimaru Nakamura & John Butcher - Dusted Machinery (2011) [FLAC]\01 - Leaven.wav
Pre-gap length 0:00:02.00
Peak level 97.7 %
Extraction speed 2.6 X
Track quality 99.9 %
Test CRC A63E8AD9
Copy CRC A63E8AD9
Track not present in AccurateRip database
Copy OK
Track 2
Filename D:\Media\Rips\Toshimaru Nakamura & John Butcher - Dusted Machinery (2011) [FLAC]\02 - Maku.wav
Peak level 97.7 %
Extraction speed 3.4 X
Track quality 100.0 %
Test CRC AC79C5A9
Copy CRC AC79C5A9
Track not present in AccurateRip database
Copy OK
Track 3
Filename D:\Media\Rips\Toshimaru Nakamura & John Butcher - Dusted Machinery (2011) [FLAC]\03 - Knead.wav
Peak level 97.7 %
Extraction speed 4.0 X
Track quality 100.0 %
Test CRC 050526A1
Copy CRC 050526A1
Track not present in AccurateRip database
Copy OK
Track 4
Filename D:\Media\Rips\Toshimaru Nakamura & John Butcher - Dusted Machinery (2011) [FLAC]\04 - Nobasu.wav
Peak level 68.3 %
Extraction speed 4.5 X
Track quality 100.0 %
Test CRC 3CAE2BC9
Copy CRC 3CAE2BC9
Track not present in AccurateRip database
Copy OK
None of the tracks are present in the AccurateRip database
No errors occurred
End of status report
---- CUETools DB Plugin V2.1.3
[CTDB TOCID: xa_lfmsbfwGwZD_MpauwWaXY34g-] found, Submit result: already submitted
[dbd9bd72] (1/1) Accurately ripped
==== Log checksum 8E7DC20CF7C16DB301FEA2A5EC3A15DE5576D29BFB9CBE11706BD3C903BF1E47 ====
 
Содержание индексной карты (.CUE)
REM GENRE Experimental
REM DATE 2011
REM DISCID 310A5004
REM COMMENT "ExactAudioCopy v1.0b3"
PERFORMER "Toshimaru Nakamura & John Butcher"
TITLE "Dusted Machinery"
FILE "01 - Leaven.wav" WAVE
TRACK 01 AUDIO
TITLE " Leaven"
PERFORMER "Toshimaru Nakamura & John Butcher"
INDEX 01 00:00:00
FILE "02 - Maku.wav" WAVE
TRACK 02 AUDIO
TITLE "Maku"
PERFORMER "Toshimaru Nakamura & John Butcher"
INDEX 01 00:00:00
FILE "03 - Knead.wav" WAVE
TRACK 03 AUDIO
TITLE "Knead"
PERFORMER "Toshimaru Nakamura & John Butcher"
INDEX 01 00:00:00
FILE "04 - Nobasu.wav" WAVE
TRACK 04 AUDIO
TITLE "Nobasu"
PERFORMER "Toshimaru Nakamura & John Butcher"
INDEX 01 00:00:00
 
Лог проверки качества
AUDIOCHECKER v2.0 beta (build 457) - by Dester - opdester@freemail.hu
~~~~~~~~~~~~~~~~~~~~~~~~~~~~~~~~~~
-=== DO NOT EDIT THIS FILE! ===-
Path: ...\Toshimaru Nakamura & John Butcher - Dusted Machinery (2011) [FLAC]
1 -=- 01 - Leaven.flac -=- MPEG (95%)
2 -=- 02 - Maku.flac -=- CDDA (100%)
3 -=- 03 - Knead.flac -=- MPEG (95%)
4 -=- 04 - Nobasu.flac -=- CDDA (100%)
Summary 52,50% CDDA
213825956
 
Скриншот спектра частот
 
Состав
中村としまる (Toshimaru Nakamura) no-input mixing board
John Butcher soprano & tenor saxophones
Any questions -> support@pro-jazz.com. По всем вопросам пишите -> support@pro-jazz.com
22:35
146
Нет комментариев. Ваш будет первым!