Вы используете незарегистрированную версию компонента "Вкладки"!

Поиск

(Free Improvisation, Contemporary Jazz) [CD] Lol Coxhill, George Haslam, Howard Riley, Paul Rutherford - The Holywell Concert - 1990, FLAC (tracks+.cue), lossless

(Free Improvisation, Contemporary Jazz) [CD] Lol Coxhill, George Haslam, Howard Riley, Paul Rutherford - The Holywell Concert - 1990, FLAC (tracks+.cue), lossless
Треклист:
Lol Coxhill, George Haslam, Howard Riley, Paul Rutherford - The Holywell Concert
Жанр: Free Improvisation, Contemporary Jazz
Носитель: CD
Страна-производитель диска (релиза): Великобритания
Год издания: 1990
Издатель (лейбл): Slam Productions
Номер по каталогу: SLAM CD302
Аудиокодек: FLAC (*.flac)
Тип рипа: tracks+.cue
Битрейт аудио: lossless
Продолжительность: 76:03
Источник (релизер): szakall
Наличие сканов в содержимом раздачи: да
Треклист:
01. In Transit (Duet for soprano saxophone and piano) - 7:39
02. Half Pisced (Trombone solo) - 9:18
03. No How (Trio for trombone, soprano saxophone and baritone saxophone) - 12:16
04. Bliss (Duet for baritone saxophone and piano) - 10:00
05. Gliss (Soprano saxophone solo) - 9:05
06. Ivory Horn (Duet for trombone and piano) - 11:24
07. Oxford (Quartet for soprano and baritone saxophones, trombone and piano) - 16:21
Состав:
Lol Coxhill - soprano saxophone
George Haslam - baritone saxophone
Howard Riley - piano
Paul Rutherford - trombone
All compositions by the performers.
Recorded at the Holywell Music Room, Oxford on February 22, 1990.
 
Лог создания рипа
Exact Audio Copy V1.0 beta 2 from 29. April 2011
EAC extraction logfile from 24. December 2011, 23:13
Lol Coxhill, George Haslam, Howard Riley, Paul Rutherford / The Holywell Concert
Used drive : TSSTcorpCDDVDW SH-S222A Adapter: 1 ID: 0
Read mode : Secure
Utilize accurate stream : Yes
Defeat audio cache : Yes
Make use of C2 pointers : No
Read offset correction : 6
Overread into Lead-In and Lead-Out : No
Fill up missing offset samples with silence : Yes
Delete leading and trailing silent blocks : No
Null samples used in CRC calculations : Yes
Used interface : Native Win32 interface for Win NT & 2000
Gap handling : Appended to previous track
Used output format : User Defined Encoder
Selected bitrate : 896 kBit/s
Quality : High
Add ID3 tag : No
Command line compressor : C:\Tool\CD\EAC10\FLAC\FLAC.EXE
Additional command line options : -6 -V -T "ARTIST=%artist%" -T "TITLE=%title%" -T "ALBUM=%albumtitle%" -T "DATE=%year%" -T "TRACKNUMBER=%tracknr%" -T "GENRE=%genre%" -T "COMMENT=%comment%" -T "BAND=%albuminterpret%" -T "COMPOSER=%composer%" %haslyrics%--ta
TOC of the extracted CD
Track | Start | Length | Start sector | End sector
---------------------------------------------------------
1 | 0:00.33 | 7:38.60 | 33 | 34442
2 | 7:39.18 | 9:17.57 | 34443 | 76274
3 | 16:57.00 | 12:15.53 | 76275 | 131452
4 | 29:12.53 | 10:00.30 | 131453 | 176482
5 | 39:13.08 | 9:04.70 | 176483 | 217352
6 | 48:18.03 | 11:24.10 | 217353 | 268662
7 | 59:42.13 | 16:21.00 | 268663 | 342237
Track 1
Filename C:\! UPLOAD\Various Artists - The Holywell Concert (1990) [FLAC] {Slam}\01 - In Transit.wav
Pre-gap length 0:00:02.33
Peak level 63.6 %
Extraction speed 3.1 X
Track quality 99.9 %
Test CRC 8905B406
Copy CRC 8905B406
Accurately ripped (confidence 2) [1645B53C] (AR v2)
Copy OK
Track 2
Filename C:\! UPLOAD\Various Artists - The Holywell Concert (1990) [FLAC] {Slam}\02 - Half Pisced.wav
Pre-gap length 0:00:08.68
Peak level 54.8 %
Extraction speed 3.1 X
Track quality 99.9 %
Test CRC 6067F60B
Copy CRC 6067F60B
Accurately ripped (confidence 2) [2C3A07E2] (AR v2)
Copy OK
Track 3
Filename C:\! UPLOAD\Various Artists - The Holywell Concert (1990) [FLAC] {Slam}\03 - No How.wav
Pre-gap length 0:00:10.20
Peak level 79.2 %
Extraction speed 3.2 X
Track quality 99.9 %
Test CRC 885D5D6A
Copy CRC 885D5D6A
Accurately ripped (confidence 2) [3BD9937D] (AR v2)
Copy OK
Track 4
Filename C:\! UPLOAD\Various Artists - The Holywell Concert (1990) [FLAC] {Slam}\04 - Bliss.wav
Pre-gap length 0:00:10.00
Peak level 66.9 %
Extraction speed 3.4 X
Track quality 100.0 %
Test CRC 30136FEB
Copy CRC 30136FEB
Accurately ripped (confidence 2) [B3A3EDB6] (AR v2)
Copy OK
Track 5
Filename C:\! UPLOAD\Various Artists - The Holywell Concert (1990) [FLAC] {Slam}\05 - Gliss.wav
Pre-gap length 0:00:09.40
Peak level 30.1 %
Extraction speed 3.3 X
Track quality 100.0 %
Test CRC 8EFCC802
Copy CRC 8EFCC802
Accurately ripped (confidence 2) [E9AF0775] (AR v2)
Copy OK
Track 6
Filename C:\! UPLOAD\Various Artists - The Holywell Concert (1990) [FLAC] {Slam}\06 - Ivory Horn.wav
Pre-gap length 0:00:10.60
Peak level 89.6 %
Extraction speed 3.5 X
Track quality 100.0 %
Test CRC 0D41C7F1
Copy CRC 0D41C7F1
Accurately ripped (confidence 2) [B03CAAC7] (AR v2)
Copy OK
Track 7
Filename C:\! UPLOAD\Various Artists - The Holywell Concert (1990) [FLAC] {Slam}\07 - Oxford.wav
Pre-gap length 0:00:10.58
Peak level 90.8 %
Extraction speed 3.5 X
Track quality 100.0 %
Test CRC FBF0FD4E
Copy CRC FBF0FD4E
Accurately ripped (confidence 2) [D1B02EAD] (AR v2)
Copy OK
All tracks accurately ripped
No errors occurred
End of status report
==== Log checksum 834CEA0B2D507F22F62ADC3C626F59ED8EACB534634A5863CE568FCC103A83AE ====
 
Содержание индексной карты (.CUE)
REM GENRE Jazz
REM DATE 1990
REM DISCID 5711D307
REM COMMENT "ExactAudioCopy v1.0b2"
PERFORMER "Lol Coxhill, George Haslam, Howard Riley, Paul Rutherford"
TITLE "The Holywell Concert"
FILE "01 - In Transit.wav" WAVE
TRACK 01 AUDIO
TITLE "In Transit"
PERFORMER "Lol Coxhill, George Haslam, Howard Riley, Paul Rutherford"
PREGAP 00:00:33
INDEX 01 00:00:00
TRACK 02 AUDIO
TITLE "Half Pisced"
PERFORMER "Lol Coxhill, George Haslam, Howard Riley, Paul Rutherford"
INDEX 00 07:29:67
FILE "02 - Half Pisced.wav" WAVE
INDEX 01 00:00:00
TRACK 03 AUDIO
TITLE "No How"
PERFORMER "Lol Coxhill, George Haslam, Howard Riley, Paul Rutherford"
INDEX 00 09:07:37
FILE "03 - No How.wav" WAVE
INDEX 01 00:00:00
TRACK 04 AUDIO
TITLE "Bliss"
PERFORMER "Lol Coxhill, George Haslam, Howard Riley, Paul Rutherford"
INDEX 00 12:05:53
FILE "04 - Bliss.wav" WAVE
INDEX 01 00:00:00
TRACK 05 AUDIO
TITLE "Gliss"
PERFORMER "Lol Coxhill, George Haslam, Howard Riley, Paul Rutherford"
INDEX 00 09:50:65
FILE "05 - Gliss.wav" WAVE
INDEX 01 00:00:00
TRACK 06 AUDIO
TITLE "Ivory Horn"
PERFORMER "Lol Coxhill, George Haslam, Howard Riley, Paul Rutherford"
INDEX 00 08:54:10
FILE "06 - Ivory Horn.wav" WAVE
INDEX 01 00:00:00
TRACK 07 AUDIO
TITLE "Oxford"
PERFORMER "Lol Coxhill, George Haslam, Howard Riley, Paul Rutherford"
INDEX 00 11:13:27
FILE "07 - Oxford.wav" WAVE
INDEX 01 00:00:00
 
Отчет CUETools
[CUETools log; Date: 08.02.2015 22:52:40; Version: 2.1.5]
Pregap length 00:00:33.
[CTDB TOCID: 6zYMJAHc_w2diGLcQX3_9ULmyrM-] found.
Track | CTDB Status
1 | (1/1) Accurately ripped
2 | (1/1) Accurately ripped
3 | (1/1) Accurately ripped
4 | (1/1) Accurately ripped
5 | (1/1) Accurately ripped
6 | (1/1) Accurately ripped
7 | (1/1) Accurately ripped
[AccurateRip ID: 001306dd-0074675a-5711d307] found.
Track [ CRC | V2 ] Status
01 [011f9f63|1645b53c] (0+4/4) Accurately ripped
02 [007feb07|2c3a07e2] (0+4/4) Accurately ripped
03 [e406c4cb|3bd9937d] (0+4/4) Accurately ripped
04 [d1841480|b3a3edb6] (0+4/4) Accurately ripped
05 [d965e451|e9af0775] (0+4/4) Accurately ripped
06 [6df998cc|b03caac7] (0+4/4) Accurately ripped
07 [446c3817|d1b02ead] (0+4/4) Accurately ripped
Track Peak [ CRC32 ] [W/O NULL] [ LOG ]
-- 90,8 [E5FDA37F] [8EBED20A]
01 63,6 [8905B406] [111C966B] CRC32
02 54,8 [6067F60B] [3252CCF9] CRC32
03 79,2 [885D5D6A] [F9CDBF31] CRC32
04 66,9 [30136FEB] [20B3901E] CRC32
05 30,1 [8EFCC802] [A2C55A01] CRC32
06 89,6 [0D41C7F1] [B6C2695C] CRC32
07 90,8 [FBF0FD4E] [C31F77D6] CRC32
 
Liner notes
The Holywell Music Room is the oldest music room in Europe.
Under its original name of the "Oxford Musick Room", the Holywell was opened in 1748.
The building of the Holywell was funded by subscription; the total cost of £1263 and 10 shillings included £100 for purchase of the land.
The unique acoustic qualities of the Holywell have attracted renowned musicians worldwide to perform there.
242 years after its opening the Holywell was home to a rare and beautiful concert of improvised music. Howard Riley, one of only a handful of pianists capable of doing so, drew on the full potential of the Steinway; Paul Rutherford, Lol Coxhill and George Haslam gave equally memorable peformances and the Holywell acoustics responded magnificently.
The concert was recorded by Michael Gerzon as part of his extensive documentation of live improvised music in Oxford and London. His first recordings in the Holywell date back to 1967. For the present concert a simple stereo-pair microphone technique was used to capture the sound of the room as well as the musicians.
Взамен ушедшей в архив.
По всем вопросам пишите личное сообщение пользователю M0p94ok.
09:09
158
Нет комментариев. Ваш будет первым!