Вы используете незарегистрированную версию компонента "Вкладки"!

Поиск

(Free Improvisation) [CD] Yoni Kretzmer 2Bass Quartet (Reuben Radding, Sean Conly, Mike Pride) - Weight - 2013, FLAC (tracks+.cue), lossless

(Free Improvisation) [CD] Yoni Kretzmer 2Bass Quartet (Reuben Radding, Sean Conly, Mike Pride) - Weight - 2013, FLAC (tracks+.cue), lossless
Треклист:
Yoni Kretzmer 2Bass Quartet / Weight
Жанр: Free Improvisation
Носитель: CD
Страна-производитель диска: Israel
Год издания: 2013
Издатель (лейбл): OutNow Recordings
Номер по каталогу: ONR008
Аудиокодек: FLAC (*.flac)
Тип рипа: tracks+.cue
Битрейт аудио: lossless
Продолжительность: 50:20
Источник (релизер): whatcd (6060842)
Наличие сканов в содержимом раздачи: нет
Треклист:
1. Number One
2. Giving Tree
3. Smallone
4. Again And Again
5. Number Three
6. A Bit Of Peace
7. Detail
8. GT Reprise
 
Лог создания рипа
X Lossless Decoder version 20130720 (144.0)
XLD extraction logfile from 2013-08-28 15:24:50 +0400
Yoni Kretzmer 2Bass Quartet / Weight
Used drive : HL-DT-ST DVDRW GX30N (revision RP09)
Media type : Pressed CD
Ripper mode : XLD Secure Ripper
Disable audio cache : OK for the drive with a cache less than 1375KiB
Make use of C2 pointers : NO
Read offset correction : 6
Max retry count : 100
Gap status : Analyzed, Appended (except HTOA)
TOC of the extracted CD
Track | Start | Length | Start sector | End sector
---------------------------------------------------------
1 | 00:00:00 | 10:40:28 | 0 | 48027
2 | 10:40:28 | 08:34:27 | 48028 | 86604
3 | 19:14:55 | 02:51:35 | 86605 | 99464
4 | 22:06:15 | 06:56:68 | 99465 | 130732
5 | 29:03:08 | 10:00:59 | 130733 | 175791
6 | 39:03:67 | 05:52:07 | 175792 | 202198
7 | 44:55:74 | 01:06:34 | 202199 | 207182
8 | 46:02:33 | 04:17:47 | 207183 | 226504
AccurateRip Summary
Disc not found in AccurateRip DB.
All Tracks
Album gain : -2.99 dB
Peak : 0.966217
Statistics
Read error : 0
Jitter error (maybe fixed) : 0
Retry sector count : 0
Damaged sector count : 0
Track 01
Filename : /Users/anch/Music/FLAC/Yoni Kretzmer 2Bass Quartet - 2012 - Weight [MP3 V0]/01 - Number One.mp3
/Users/anch/Music/FLAC/Yoni Kretzmer 2Bass Quartet - 2012 - Weight [FLAC]/01 - Number One.flac
Pre-gap length : 00:02:00
Track gain : -4.44 dB
Peak : 0.966217
CRC32 hash (test run) : 93D6CD63
CRC32 hash : 93D6CD63
CRC32 hash (skip zero) : 98BB0E40
AccurateRip v1 signature : 7104EBD3
AccurateRip v2 signature : B99A176B
->Track not present in AccurateRip database.
Statistics
Read error : 0
Jitter error (maybe fixed) : 0
Retry sector count : 0
Damaged sector count : 0
Track 02
Filename : /Users/anch/Music/FLAC/Yoni Kretzmer 2Bass Quartet - 2012 - Weight [MP3 V0]/02 - Giving Tree.mp3
/Users/anch/Music/FLAC/Yoni Kretzmer 2Bass Quartet - 2012 - Weight [FLAC]/02 - Giving Tree.flac
Pre-gap length : 00:01:74
Track gain : -2.18 dB
Peak : 0.966217
CRC32 hash (test run) : 780BD0D6
CRC32 hash : 780BD0D6
CRC32 hash (skip zero) : AB098115
AccurateRip v1 signature : 436870C8
AccurateRip v2 signature : 6577FA71
->Track not present in AccurateRip database.
Statistics
Read error : 0
Jitter error (maybe fixed) : 0
Retry sector count : 0
Damaged sector count : 0
Track 03
Filename : /Users/anch/Music/FLAC/Yoni Kretzmer 2Bass Quartet - 2012 - Weight [MP3 V0]/03 - Smallone.mp3
/Users/anch/Music/FLAC/Yoni Kretzmer 2Bass Quartet - 2012 - Weight [FLAC]/03 - Smallone.flac
Pre-gap length : 00:01:74
Track gain : 3.46 dB
Peak : 0.966187
CRC32 hash (test run) : E2BD0F19
CRC32 hash : E2BD0F19
CRC32 hash (skip zero) : A861FE4B
AccurateRip v1 signature : C25CE2F5
AccurateRip v2 signature : 3908BF61
->Track not present in AccurateRip database.
Statistics
Read error : 0
Jitter error (maybe fixed) : 0
Retry sector count : 0
Damaged sector count : 0
Track 04
Filename : /Users/anch/Music/FLAC/Yoni Kretzmer 2Bass Quartet - 2012 - Weight [MP3 V0]/04 - Again And Again.mp3
/Users/anch/Music/FLAC/Yoni Kretzmer 2Bass Quartet - 2012 - Weight [FLAC]/04 - Again And Again.flac
Pre-gap length : 00:01:74
Track gain : -4.16 dB
Peak : 0.966217
CRC32 hash (test run) : D3C1FE61
CRC32 hash : D3C1FE61
CRC32 hash (skip zero) : FBC328D9
AccurateRip v1 signature : 21D49372
AccurateRip v2 signature : 768BD747
->Track not present in AccurateRip database.
Statistics
Read error : 0
Jitter error (maybe fixed) : 0
Retry sector count : 0
Damaged sector count : 0
Track 05
Filename : /Users/anch/Music/FLAC/Yoni Kretzmer 2Bass Quartet - 2012 - Weight [MP3 V0]/05 - Number Three.mp3
/Users/anch/Music/FLAC/Yoni Kretzmer 2Bass Quartet - 2012 - Weight [FLAC]/05 - Number Three.flac
Pre-gap length : 00:01:74
Track gain : -2.13 dB
Peak : 0.966217
CRC32 hash (test run) : 8CC370AF
CRC32 hash : 8CC370AF
CRC32 hash (skip zero) : B0551FDC
AccurateRip v1 signature : 9444EF41
AccurateRip v2 signature : 387FBE04
->Track not present in AccurateRip database.
Statistics
Read error : 0
Jitter error (maybe fixed) : 0
Retry sector count : 0
Damaged sector count : 0
Track 06
Filename : /Users/anch/Music/FLAC/Yoni Kretzmer 2Bass Quartet - 2012 - Weight [MP3 V0]/06 - A Bit Of Peace.mp3
/Users/anch/Music/FLAC/Yoni Kretzmer 2Bass Quartet - 2012 - Weight [FLAC]/06 - A Bit Of Peace.flac
Pre-gap length : 00:01:74
Track gain : -2.40 dB
Peak : 0.966217
CRC32 hash (test run) : ABB2863F
CRC32 hash : ABB2863F
CRC32 hash (skip zero) : 88121FEB
AccurateRip v1 signature : 858E7375
AccurateRip v2 signature : 3B46D198
->Track not present in AccurateRip database.
Statistics
Read error : 0
Jitter error (maybe fixed) : 0
Retry sector count : 0
Damaged sector count : 0
Track 07
Filename : /Users/anch/Music/FLAC/Yoni Kretzmer 2Bass Quartet - 2012 - Weight [MP3 V0]/07 - Detail.mp3
/Users/anch/Music/FLAC/Yoni Kretzmer 2Bass Quartet - 2012 - Weight [FLAC]/07 - Detail.flac
Pre-gap length : 00:01:74
Track gain : 0.71 dB
Peak : 0.966003
CRC32 hash (test run) : 91B3B2C8
CRC32 hash : 91B3B2C8
CRC32 hash (skip zero) : E3467F9B
AccurateRip v1 signature : 44BBFF5A
AccurateRip v2 signature : 33D38655
->Track not present in AccurateRip database.
Statistics
Read error : 0
Jitter error (maybe fixed) : 0
Retry sector count : 0
Damaged sector count : 0
Track 08
Filename : /Users/anch/Music/FLAC/Yoni Kretzmer 2Bass Quartet - 2012 - Weight [MP3 V0]/08 - GT Reprise.mp3
/Users/anch/Music/FLAC/Yoni Kretzmer 2Bass Quartet - 2012 - Weight [FLAC]/08 - GT Reprise.flac
Pre-gap length : 00:01:74
Track gain : -0.92 dB
Peak : 0.966187
CRC32 hash (test run) : F1DF2120
CRC32 hash : F1DF2120
CRC32 hash (skip zero) : 85387CD0
AccurateRip v1 signature : 36E7BC6D
AccurateRip v2 signature : E2A8311D
->Track not present in AccurateRip database.
Statistics
Read error : 0
Jitter error (maybe fixed) : 0
Retry sector count : 0
Damaged sector count : 0
No errors occurred
End of status report
 
Содержание индексной карты (.CUE)
TITLE "Weight"
PERFORMER "Yoni Kretzmer 2Bass Quartet"
REM GENRE "Free Jazz"
REM DATE "2012"
REM DISCNUMBER 1
REM TOTALDISCS 1
REM DISCID 730BCC08
REM REPLAYGAIN_ALBUM_GAIN -2.99 dB
REM REPLAYGAIN_ALBUM_PEAK 0.966217
FILE "01 - Number One.flac" WAVE
TRACK 01 AUDIO
TITLE "Number One"
PERFORMER "Yoni Kretzmer 2Bass Quartet"
SONGWRITER "Yoni Kretzmer"
REM REPLAYGAIN_TRACK_GAIN -4.44 dB
REM REPLAYGAIN_TRACK_PEAK 0.966217
INDEX 01 00:00:00
TRACK 02 AUDIO
TITLE "Giving Tree"
PERFORMER "Yoni Kretzmer 2Bass Quartet"
SONGWRITER "Yoni Kretzmer"
REM REPLAYGAIN_TRACK_GAIN -2.18 dB
REM REPLAYGAIN_TRACK_PEAK 0.966217
INDEX 00 10:38:29
FILE "02 - Giving Tree.flac" WAVE
INDEX 01 00:00:00
TRACK 03 AUDIO
TITLE "Smallone"
PERFORMER "Yoni Kretzmer 2Bass Quartet"
SONGWRITER "Yoni Kretzmer"
REM REPLAYGAIN_TRACK_GAIN 3.46 dB
REM REPLAYGAIN_TRACK_PEAK 0.966187
INDEX 00 08:32:28
FILE "03 - Smallone.flac" WAVE
INDEX 01 00:00:00
TRACK 04 AUDIO
TITLE "Again And Again"
PERFORMER "Yoni Kretzmer 2Bass Quartet"
SONGWRITER "Yoni Kretzmer"
REM REPLAYGAIN_TRACK_GAIN -4.16 dB
REM REPLAYGAIN_TRACK_PEAK 0.966217
INDEX 00 02:49:36
FILE "04 - Again And Again.flac" WAVE
INDEX 01 00:00:00
TRACK 05 AUDIO
TITLE "Number Three"
PERFORMER "Yoni Kretzmer 2Bass Quartet"
SONGWRITER "Yoni Kretzmer"
REM REPLAYGAIN_TRACK_GAIN -2.13 dB
REM REPLAYGAIN_TRACK_PEAK 0.966217
INDEX 00 06:54:69
FILE "05 - Number Three.flac" WAVE
INDEX 01 00:00:00
TRACK 06 AUDIO
TITLE "A Bit Of Peace"
PERFORMER "Yoni Kretzmer 2Bass Quartet"
SONGWRITER "Yoni Kretzmer"
REM REPLAYGAIN_TRACK_GAIN -2.40 dB
REM REPLAYGAIN_TRACK_PEAK 0.966217
INDEX 00 09:58:60
FILE "06 - A Bit Of Peace.flac" WAVE
INDEX 01 00:00:00
TRACK 07 AUDIO
TITLE "Detail"
PERFORMER "Yoni Kretzmer 2Bass Quartet"
SONGWRITER "Yoni Kretzmer"
REM REPLAYGAIN_TRACK_GAIN 0.71 dB
REM REPLAYGAIN_TRACK_PEAK 0.966003
INDEX 00 05:50:08
FILE "07 - Detail.flac" WAVE
INDEX 01 00:00:00
TRACK 08 AUDIO
TITLE "GT Reprise"
PERFORMER "Yoni Kretzmer 2Bass Quartet"
SONGWRITER "Yoni Kretzmer"
REM REPLAYGAIN_TRACK_GAIN -0.92 dB
REM REPLAYGAIN_TRACK_PEAK 0.966187
INDEX 00 01:04:35
FILE "08 - GT Reprise.flac" WAVE
INDEX 01 00:00:00
 
Об альбоме (сборнике)
Derived straight from the classic Sax-Bass-drum trio, Kretzmer’s latest projects augments this standard setting with the addition of an extra double-bass, thus creating a different balance, sound, deepness and flavor yet still maintaining some of the esthetics and clarity that made the sax trio so popular in the first place. One might say this quartet’s sound is obvious yet unfamiliar simultaneously.
Kretzmer’s compositions, written specifically with these great bassists (Sean Conly and Reuben Radding) and drummer (Mike Pride) in mind, take full advantage of the profound, even haunting, sound a band of this instrumentation can create and act as a vague frame for further development and expression.
 
Состав
Double Bass – Reuben Radding, Sean Conly
Drums – Mike Pride
Tenor Saxophone – Yoni Kretzmer
По всем вопросам пишите личное сообщение пользователю M0p94ok.
06:17
150
Нет комментариев. Ваш будет первым!