Вы используете незарегистрированную версию компонента "Вкладки"!

Поиск

(Contemporary Jazz, Free Jazz) [CD] Akira Sakata ( Bill Laswell, Hamid Drake, Pete Cosey) - Fisherman's.com - 2001, FLAC (tracks+.cue), lossless

Треклист:
Akira Sakata / Fisherman's.com
Жанр: Contemporary Jazz, Free Jazz
Носитель: CD
Страна-производитель диска: Japan
Год издания: 2001
Издатель (лейбл): Starlets Records
Номер по каталогу: EOCD-0002
Аудиокодек: FLAC (*.flac)
Тип рипа: tracks+.cue
Битрейт аудио: lossless
Продолжительность: 47:15
Источник (релизер): whatcd (dotdash)
Наличие сканов в содержимом раздачи: нет
Треклист:
1 Kaigara-Bushi 14:43
2 Ondo No Hunauta 9:49
3 Saitaro-Bushi 8:43
4 Wakare No Ipponsugi 14:28
 
Лог создания рипа
X Lossless Decoder version 20140504 (147.0)
XLD extraction logfile from 2014-10-18 00:33:58 +0900
坂田明 / Fisherman's.com
Used drive : _NEC DVD_RW ND-3540A (revision 1.01)
Media type : Pressed CD
Ripper mode : XLD Secure Ripper
Disable audio cache : OK for the drive with a cache less than 1375KiB
Make use of C2 pointers : NO
Read offset correction : 48
Max retry count : 100
Gap status : Analyzed, Appended (except HTOA)
TOC of the extracted CD
Track | Start | Length | Start sector | End sector
---------------------------------------------------------
1 | 00:00:00 | 14:44:25 | 0 | 66324
2 | 14:44:25 | 09:50:72 | 66325 | 110646
3 | 24:35:22 | 08:27:15 | 110647 | 148686
4 | 33:02:37 | 14:13:01 | 148687 | 212662
AccurateRip Summary (DiscID: 000836d2-0020639f-410b1304)
Track 01 : OK (v1, confidence 2/2)
Track 02 : OK (v1, confidence 2/2)
Track 03 : OK (v1, confidence 2/2)
Track 04 : OK (v1, confidence 2/2)
->All tracks accurately ripped.
All Tracks
Album gain : -7.69 dB
Peak : 0.988739
Statistics
Read error : 0
Jitter error (maybe fixed) : 0
Retry sector count : 0
Damaged sector count : 0
Track 01
Filename : /konwersja/坂田明 - Fisherman's.com (2001) [FLAC]/01 - Kaigara-Bushi.flac
Pre-gap length : 00:02:00
Track gain : -7.08 dB
Peak : 0.988739
CRC32 hash (test run) : 6EF9BD8F
CRC32 hash : 6EF9BD8F
CRC32 hash (skip zero) : 614FE81C
AccurateRip v1 signature : 3AD0101D
AccurateRip v2 signature : 62E216CC
->Accurately ripped (v1, confidence 2/2)
Statistics
Read error : 0
Jitter error (maybe fixed) : 0
Retry sector count : 0
Damaged sector count : 0
Track 02
Filename : /konwersja/坂田明 - Fisherman's.com (2001) [FLAC]/02 - Ondo No Hunauta.flac
Track gain : -7.69 dB
Peak : 0.988739
CRC32 hash (test run) : F7CB8C42
CRC32 hash : F7CB8C42
CRC32 hash (skip zero) : 94ECD90E
AccurateRip v1 signature : 6155E2FA
AccurateRip v2 signature : B34714BC
->Accurately ripped (v1, confidence 2/2)
Statistics
Read error : 0
Jitter error (maybe fixed) : 0
Retry sector count : 0
Damaged sector count : 0
Track 03
Filename : /konwersja/坂田明 - Fisherman's.com (2001) [FLAC]/03 - Saitaro-Bushi.flac
Track gain : -7.56 dB
Peak : 0.988739
CRC32 hash (test run) : C31DC856
CRC32 hash : C31DC856
CRC32 hash (skip zero) : 2003C631
AccurateRip v1 signature : EEDCB31F
AccurateRip v2 signature : B5D44630
->Accurately ripped (v1, confidence 2/2)
Statistics
Read error : 0
Jitter error (maybe fixed) : 0
Retry sector count : 0
Damaged sector count : 0
Track 04
Filename : /konwersja/坂田明 - Fisherman's.com (2001) [FLAC]/04 - Wakare No Ippon-Sugi.flac
Track gain : -8.15 dB
Peak : 0.988739
CRC32 hash (test run) : 248790F1
CRC32 hash : 248790F1
CRC32 hash (skip zero) : 6F6FA82E
AccurateRip v1 signature : FFCB86BB
AccurateRip v2 signature : 3F737723
->Accurately ripped (v1, confidence 2/2)
Statistics
Read error : 0
Jitter error (maybe fixed) : 0
Retry sector count : 0
Damaged sector count : 0
No errors occurred
End of status report
-----BEGIN XLD SIGNATURE-----
OrP2VHEYNT5oXhrnVvrulTRN9rupWL393O4LF5V784sVU0.MLFi1KDZ_80rDBEjOpmWSUlVblC2ttO.7NTUKdT0HTsiPhUgP1n_gnJy
-----END XLD SIGNATURE-----
 
Содержание индексной карты (.CUE)
TITLE "Fisherman's.com"
PERFORMER "坂田明"
REM GENRE "Jazz"
REM DATE "2001"
REM DISCID 410B1304
REM REPLAYGAIN_ALBUM_GAIN -7.69 dB
REM REPLAYGAIN_ALBUM_PEAK 0.988739
FILE "01 - Kaigara-Bushi.flac" WAVE
TRACK 01 AUDIO
TITLE "Kaigara-Bushi"
PERFORMER "坂田明"
REM REPLAYGAIN_TRACK_GAIN -7.08 dB
REM REPLAYGAIN_TRACK_PEAK 0.988739
INDEX 01 00:00:00
FILE "02 - Ondo No Hunauta.flac" WAVE
TRACK 02 AUDIO
TITLE "Ondo No Hunauta"
PERFORMER "坂田明"
REM REPLAYGAIN_TRACK_GAIN -7.69 dB
REM REPLAYGAIN_TRACK_PEAK 0.988739
INDEX 01 00:00:00
FILE "03 - Saitaro-Bushi.flac" WAVE
TRACK 03 AUDIO
TITLE "Saitaro-Bushi"
PERFORMER "坂田明"
REM REPLAYGAIN_TRACK_GAIN -7.56 dB
REM REPLAYGAIN_TRACK_PEAK 0.988739
INDEX 01 00:00:00
FILE "04 - Wakare No Ippon-Sugi.flac" WAVE
TRACK 04 AUDIO
TITLE "Wakare No Ippon-Sugi"
PERFORMER "坂田明"
REM REPLAYGAIN_TRACK_GAIN -8.15 dB
REM REPLAYGAIN_TRACK_PEAK 0.988739
INDEX 01 00:00:00
Доп. информация: Recorded and mixed at Orange Music Sound Studio, New Jersey, October 17-19, 2000.
 
Состав
Alto Saxophone, Vocals – Akira Sakata
Bass – Bill Laswell
Drums – Hamid Drake
Guitar – Pete Cosey
Producer – Akira Sakata, Bill Laswell
По всем вопросам пишите личное сообщение пользователю M0p94ok.
06:16
148
Нет комментариев. Ваш будет первым!