Вы используете незарегистрированную версию компонента "Вкладки"!

Поиск

(Free Improvisation) [CD] Lull (Tanja Feichtmair, Uli Winter, Josef Novotny, Fredi Proll) - The Zipper - 2009, FLAC (image+.cue), lossless

(Free Improvisation) [CD] Lull (Tanja Feichtmair, Uli Winter, Josef Novotny, Fredi Proll) - The Zipper - 2009, FLAC (image+.cue), lossless
Треклист:
Lull / The Zipper
Жанр: Free Improvisation
Носитель: CD
Страна-производитель диска: UK
Год издания: 2009
Издатель (лейбл): Leo Records
Номер по каталогу: CD LR 554
Аудиокодек: FLAC (*.flac)
Тип рипа: image+.cue
Битрейт аудио: lossless
Продолжительность: 70:47
Источник (релизер): CD
Наличие сканов в содержимом раздачи: нет
Треклист:
1 The Latchkey 8:46
2 Stide The Stroke 13:36
3 Subversive Activities 15:47
4 The Zipper 13:34
5 The Tittle-Tattle 15:35
6 Longing For Poetry 3:17
 
Лог создания рипа
Exact Audio Copy V1.0 beta 2 from 29. April 2011
EAC extraction logfile from 15. March 2014, 17:18
Lull / The Zipper
Used drive : Optiarc DVD RW AD-7170A Adapter: 0 ID: 0
Read mode : Secure
Utilize accurate stream : Yes
Defeat audio cache : Yes
Make use of C2 pointers : No
Read offset correction : 48
Overread into Lead-In and Lead-Out : No
Fill up missing offset samples with silence : Yes
Delete leading and trailing silent blocks : No
Null samples used in CRC calculations : Yes
Used interface : Native Win32 interface for Win NT & 2000
Used output format : User Defined Encoder
Selected bitrate : 320 kBit/s
Quality : High
Add ID3 tag : No
Command line compressor : C:\Program Files\Exact Audio Copy\Flac\flac.exe
Additional command line options : -V -8 -T "Date=%year%" -T "Genre=%genre%" %source%
TOC of the extracted CD
Track | Start | Length | Start sector | End sector
---------------------------------------------------------
1 | 0:00.00 | 8:48.31 | 0 | 39630
2 | 8:48.31 | 13:38.74 | 39631 | 101054
3 | 22:27.30 | 15:48.48 | 101055 | 172202
4 | 38:16.03 | 13:35.51 | 172203 | 233378
5 | 51:51.54 | 15:38.20 | 233379 | 303748
6 | 67:29.74 | 3:17.22 | 303749 | 318545
Range status and errors
Selected range
Filename K:\ЕАС\Lull - The Zipper.wav
Peak level 96.6 %
Extraction speed 2.1 X
Range quality 99.9 %
Test CRC 8CEB2C13
Copy CRC 8CEB2C13
Copy OK
No errors occurred
AccurateRip summary
Track 1 not present in database
Track 2 not present in database
Track 3 not present in database
Track 4 not present in database
Track 5 not present in database
Track 6 not present in database
None of the tracks are present in the AccurateRip database
End of status report
==== Log checksum FE4F0A472A6585D9C843C654E85C841C82BAC4BBCEFB43259D3A8D3F20094732 ====
 
Содержание индексной карты (.CUE)
REM GENRE Jazz
REM DATE 2009
REM DISCID 42109706
REM COMMENT "ExactAudioCopy v1.0b2"
PERFORMER "Lull"
TITLE "The Zipper"
FILE "Lull - The Zipper.flac" WAVE
TRACK 01 AUDIO
TITLE "The Latchkey"
PERFORMER "Lull"
ISRC GBJZD0900025
INDEX 01 00:00:00
TRACK 02 AUDIO
TITLE "Stride The Stroke"
PERFORMER "Lull"
ISRC GBJZD0900026
INDEX 00 08:46:31
INDEX 01 08:48:31
TRACK 03 AUDIO
TITLE "Subversive Activities"
PERFORMER "Lull"
ISRC GBJZD0900027
INDEX 00 22:24:29
INDEX 01 22:27:30
TRACK 04 AUDIO
TITLE "The Zipper"
PERFORMER "Lull"
ISRC GBJZD0900028
INDEX 00 38:14:02
INDEX 01 38:16:03
TRACK 05 AUDIO
TITLE "The Tittle-Tattle"
PERFORMER "Lull"
ISRC GBJZD0900029
INDEX 00 51:49:53
INDEX 01 51:51:54
TRACK 06 AUDIO
TITLE "Longing For Poetry"
PERFORMER "Lull"
ISRC GBJZD0900030
INDEX 00 67:26:73
INDEX 01 67:29:74
Доп. информация: Recorded 2008-12-12 Vienna
 
Состав
Alto Saxophone, Bass Clarinet – Tanja Feichtmair
Cello – Uli Winter
Drums – Fredi Pröll
Piano, Electronics, Recorded By, Mastered By – Josef Novotny
По всем вопросам пишите личное сообщение пользователю M0p94ok.
00:14
203
Нет комментариев. Ваш будет первым!