Поиск

(Free Improvisation) [CD] Lean Left (Ken Vandermark, Paal Nilssen-Love, Terrie Ex, Andy Moor) - Live At Area Sismica - 2014, FLAC (tracks+.cue), lossless

(Free Improvisation) [CD] Lean Left (Ken Vandermark, Paal Nilssen-Love, Terrie Ex, Andy Moor) - Live At Area Sismica - 2014, FLAC (tracks+.cue), lossless
Треклист:
Lean Left / Live At Area Sismica
Жанр: Free Improvisation
Носитель: CD
Страна-производитель диска (релиза): Netherlands
Год издания: 2014
Издатель (лейбл): Unsounds
Номер по каталогу: 41u
Аудиокодек: FLAC (*.flac)
Тип рипа: tracks+.cue
Битрейт аудио: lossless
Продолжительность: 72:51
Источник (релизер): cd
Наличие сканов в содержимом раздачи: нет
Треклист:
1 Traitors Head 17:38
2 Moti 6:04
3 Terpuk 24:28
4 South Sister 12:25
5 Cleft Segment 5:13
6 Gada Ale 6:48
 
Лог создания рипа
Exact Audio Copy V1.0 beta 3 from 29. August 2011
EAC extraction logfile from 2. January 2015, 19:47
Lean Left / Live At Area Sismica
Used drive : ASUS DRW-24F1ST a Adapter: 0 ID: 0
Read mode : Secure
Utilize accurate stream : Yes
Defeat audio cache : Yes
Make use of C2 pointers : No
Read offset correction : 6
Overread into Lead-In and Lead-Out : No
Fill up missing offset samples with silence : Yes
Delete leading and trailing silent blocks : No
Null samples used in CRC calculations : Yes
Used interface : Native Win32 interface for Win NT & 2000
Gap handling : Appended to previous track
Used output format : User Defined Encoder
Selected bitrate : 320 kBit/s
Quality : High
Add ID3 tag : No
Command line compressor : D:\Programs\Exact Audio Copy\Flac\flac.exe
Additional command line options : -V -8 -T "Genre=%genre%" -T "Artist=%artist%" -T "Title=%title%" -T "Album=%albumtitle%" -T "Date=%year%" -T "Tracknumber=%tracknr%" -T "Comment=%comment%" %source%
TOC of the extracted CD
Track | Start | Length | Start sector | End sector
---------------------------------------------------------
1 | 0:00.00 | 17:41.44 | 0 | 79618
2 | 17:41.44 | 6:07.34 | 79619 | 107177
3 | 23:49.03 | 24:29.30 | 107178 | 217382
4 | 48:18.33 | 12:28.55 | 217383 | 273537
5 | 60:47.13 | 5:15.47 | 273538 | 297209
6 | 66:02.60 | 6:48.44 | 297210 | 327853
Track 1
Filename D:\EAC\01 Traitors Head.wav
Pre-gap length 0:00:02.00
Peak level 98.8 %
Extraction speed 5.8 X
Track quality 100.0 %
Test CRC 7045F0F2
Copy CRC 7045F0F2
Copy OK
Track 2
Filename D:\EAC\02 Moti.wav
Pre-gap length 0:00:02.73
Peak level 98.8 %
Extraction speed 6.6 X
Track quality 100.0 %
Test CRC C405E684
Copy CRC C405E684
Copy OK
Track 3
Filename D:\EAC\03 Terpuk.wav
Peak level 98.8 %
Extraction speed 8.0 X
Track quality 99.9 %
Test CRC 3ED2B5AE
Copy CRC 3ED2B5AE
Copy OK
Track 4
Filename D:\EAC\04 South Sister.wav
Peak level 100.0 %
Extraction speed 9.2 X
Track quality 100.0 %
Test CRC 9F4E080E
Copy CRC 9F4E080E
Copy OK
Track 5
Filename D:\EAC\05 Cleft Segment.wav
Pre-gap length 0:00:03.60
Peak level 77.5 %
Extraction speed 9.1 X
Track quality 100.0 %
Test CRC DB0B66B7
Copy CRC DB0B66B7
Copy OK
Track 6
Filename D:\EAC\06 Gada Ale.wav
Pre-gap length 0:00:01.74
Peak level 98.8 %
Extraction speed 9.6 X
Track quality 100.0 %
Test CRC F65B6DC7
Copy CRC F65B6DC7
Copy OK
No errors occurred
End of status report
==== Log checksum 448EBF451CF25FC6B316AB1E4FBDEED45D6F23C1A14C7DA3D5707A3EE0DB33B3 ====
 
Содержание индексной карты (.CUE)
REM GENRE Jazz
REM DATE 2014
REM DISCID 4C111306
REM COMMENT "ExactAudioCopy v1.0b3"
PERFORMER "Lean Left "
TITLE "Live At Area Sismica "
FILE "01 Traitors Head.wav" WAVE
TRACK 01 AUDIO
TITLE "Traitors Head"
PERFORMER "Lean Left "
INDEX 01 00:00:00
TRACK 02 AUDIO
TITLE "Moti"
PERFORMER "Lean Left "
INDEX 00 17:38:46
FILE "02 Moti.wav" WAVE
INDEX 01 00:00:00
FILE "03 Terpuk.wav" WAVE
TRACK 03 AUDIO
TITLE "Terpuk"
PERFORMER "Lean Left "
INDEX 01 00:00:00
FILE "04 South Sister.wav" WAVE
TRACK 04 AUDIO
TITLE "South Sister "
PERFORMER "Lean Left "
INDEX 01 00:00:00
TRACK 05 AUDIO
TITLE "Cleft Segment"
PERFORMER "Lean Left "
INDEX 00 12:24:70
FILE "05 Cleft Segment.wav" WAVE
INDEX 01 00:00:00
TRACK 06 AUDIO
TITLE "Gada Ale"
PERFORMER "Lean Left "
INDEX 00 05:13:48
FILE "06 Gada Ale.wav" WAVE
INDEX 01 00:00:00
Доп. информация: Recorded live in concert at Area Sismica, Forli, Forli - Cesena, Italy,September 22 2012.
 
Об альбоме (сборнике)
"Live at Area Sismica" is Lean Left's fifth live recording, the second released on Unsounds, and by far the best, most versatile and exciting yet.
Recorded live at Area Sismica in Forli Italy, September 22 2012, the final date of a long tour with thousands of kilometres behind them: the band at this point have played enough dates in a row to have become a very tight unit but still free flowing and with a thousand ideas, one interrupting or overlapping the next. They engage 400 percent in what could be best described as a volcanic eruption, and take their audience close to the burning heart of their fearless music making.
In two sets, Lean Left is creating a non stop celebration of instant music with blissful grins and playful energy, rattling and shaking at right angles with one furious swing after the next.
As Stewart Lee said about Lean Left: "Jazz theorizing be damned, its like being 18 again "-Unsounds
 
Состав
Ken Vandermark - tenor saxophone, baritone saxophone, Bb clarinet
Paal Nilssen-Love - drums
Terrie Ex - left guitar
Andy Moor - guitar
По всем вопросам пишите личное сообщение пользователю M0p94ok.
08:01
133
Нет комментариев. Ваш будет первым!