Вы используете незарегистрированную версию компонента "Вкладки"!

Поиск

(Free Improvisation) [CD] Heinz Geisser, Eiichi Hayashi, Takayuki Kato, Yuki Saga - On Bashamichi Avenue - 2010, FLAC (tracks+.cue), lossless

(Free Improvisation) [CD] Heinz Geisser, Eiichi Hayashi, Takayuki Kato, Yuki Saga - On Bashamichi Avenue - 2010, FLAC (tracks+.cue), lossless
Треклист:
Heinz Geisser, Eiichi Hayashi, Takayuki Kato, Yuki Saga / On Bashamichi Avenue
Жанр: Free Improvisation
Носитель: CD
Страна-производитель диска (релиза): UK
Год издания: 2010
Издатель (лейбл): Leo Records
Номер по каталогу: CD LR 583
Аудиокодек: FLAC (*.flac)
Тип рипа: tracks+.cue
Битрейт аудио: lossless
Продолжительность: 62:42
Источник (релизер): CD
Наличие сканов в содержимом раздачи: нет
Треклист:
1 As We Do 11:17
2 We Mean It 9:29
3 On Bashamichi Aveneu 23:48
4 Irème 18:06
 
Лог создания рипа
Exact Audio Copy V1.0 beta 3 from 29. August 2011
EAC extraction logfile from 4. January 2015, 21:06
Heinz Geisser, Eiichi Hayashi, Takayuki Kato, Yuki Saga / On Bashamichi Avenue
Used drive : ASUS DRW-24F1ST a Adapter: 0 ID: 0
Read mode : Secure
Utilize accurate stream : Yes
Defeat audio cache : Yes
Make use of C2 pointers : No
Read offset correction : 6
Overread into Lead-In and Lead-Out : No
Fill up missing offset samples with silence : Yes
Delete leading and trailing silent blocks : No
Null samples used in CRC calculations : Yes
Used interface : Native Win32 interface for Win NT & 2000
Gap handling : Appended to previous track
Used output format : User Defined Encoder
Selected bitrate : 320 kBit/s
Quality : High
Add ID3 tag : No
Command line compressor : D:\Programs\Exact Audio Copy\Flac\flac.exe
Additional command line options : -V -8 -T "Genre=%genre%" -T "Artist=%artist%" -T "Title=%title%" -T "Album=%albumtitle%" -T "Date=%year%" -T "Tracknumber=%tracknr%" -T "Comment=%comment%" %source%
TOC of the extracted CD
Track | Start | Length | Start sector | End sector
---------------------------------------------------------
1 | 0:00.00 | 11:17.51 | 0 | 50825
2 | 11:17.51 | 9:29.02 | 50826 | 93502
3 | 20:46.53 | 23:49.46 | 93503 | 200723
4 | 44:36.24 | 18:06.15 | 200724 | 282188
Track 1
Filename D:\EAC\01 As We Do.wav
Pre-gap length 0:00:02.00
Peak level 95.0 %
Extraction speed 5.2 X
Track quality 100.0 %
Test CRC 96D4E699
Copy CRC 96D4E699
Copy OK
Track 2
Filename D:\EAC\02 We Mean It.wav
Peak level 70.8 %
Extraction speed 5.9 X
Track quality 99.9 %
Test CRC 38956CAA
Copy CRC 38956CAA
Copy OK
Track 3
Filename D:\EAC\03 On Bashamichi Aveneu.wav
Peak level 100.0 %
Extraction speed 7.9 X
Track quality 100.0 %
Test CRC 6F7D7E6D
Copy CRC 6F7D7E6D
Copy OK
Track 4
Filename D:\EAC\04 Ireme.wav
Peak level 100.0 %
Extraction speed 9.3 X
Track quality 100.0 %
Test CRC 60292899
Copy CRC 60292899
Copy OK
No errors occurred
End of status report
==== Log checksum 758122053B856EB1A392027DAF96621F1CCD400199083EA946FBD7C476C177C3 ====
 
Содержание индексной карты (.CUE)
REM GENRE Jazz
REM DATE 2010
REM DISCID 3E0EB204
REM COMMENT "ExactAudioCopy v1.0b3"
PERFORMER "Heinz Geisser, Eiichi Hayashi, Takayuki Kato, Yuki Saga"
TITLE "On Bashamichi Avenue "
FILE "01 As We Do.wav" WAVE
TRACK 01 AUDIO
TITLE "As We Do"
PERFORMER "Heinz Geisser, Eiichi Hayashi, Takayuki Kato, Yuki Saga"
FLAGS DCP
INDEX 01 00:00:00
FILE "02 We Mean It.wav" WAVE
TRACK 02 AUDIO
TITLE "We Mean It"
PERFORMER "Heinz Geisser, Eiichi Hayashi, Takayuki Kato, Yuki Saga"
FLAGS DCP
INDEX 01 00:00:00
FILE "03 On Bashamichi Aveneu.wav" WAVE
TRACK 03 AUDIO
TITLE "On Bashamichi Aveneu"
PERFORMER "Heinz Geisser, Eiichi Hayashi, Takayuki Kato, Yuki Saga"
FLAGS DCP
INDEX 01 00:00:00
FILE "04 Ireme.wav" WAVE
TRACK 04 AUDIO
TITLE "Ireme"
PERFORMER "Heinz Geisser, Eiichi Hayashi, Takayuki Kato, Yuki Saga"
FLAGS DCP
INDEX 01 00:00:00
Доп. информация: Recorded live to two track on April 20, 2009 at Jazz Club Airegin, Yokohama
 
Об альбоме (сборнике)
Having recorded half a dozen CDs with the Collective 4tet, Heinz Geisser is a household name with Leo Records. This time, however, the Swiss drummer leads a Japanese quartet featuring a legendary Japanese saxophonist Eiichi Hayashi. Recorded live at the Yokohama jazz club "Airegin", the quartet augmented by the electric guitarist Takayuki Kato and lyric-less voice of Yuki Saga flourish in an excitable and multidirectional improvisation. The quartet packs a vicious punch, yet more important, spawns a marvel of ingenuity.
 
Состав
Alto Saxophone – Eiichi Hayashi
Electric Guitar, Toy [Toys] – Takayuki Kato
Percussion – Heinz Geisser
Voice, Whistle, Toy [Toys] – Yuki Saga
По всем вопросам пишите личное сообщение пользователю M0p94ok.
08:02
174
Нет комментариев. Ваш будет первым!