Вы используете незарегистрированную версию компонента "Вкладки"!

Поиск

(Free Improvisation) [CD] Larry Stabbins, Howard Riley, Tony Wren, Mark Sanders - Four At St. Cyprians - 2006, FLAC (tracks+.cue), lossless

(Free Improvisation) [CD] Larry Stabbins, Howard Riley, Tony Wren, Mark Sanders - Four At St. Cyprians - 2006, FLAC (tracks+.cue), lossless
Треклист:
Larry Stabbins, Howard Riley, Tony Wren, Mark Sanders / Four At St. Cyprians
Жанр: Free Improvisation
Носитель: CD
Страна-производитель диска (релиза): UK
Год издания: 2006
Издатель (лейбл): FMR Records
Номер по каталогу: CD196-0506
Аудиокодек: FLAC (*.flac)
Тип рипа: tracks+.cue
Битрейт аудио: lossless
Продолжительность: 79:52
Источник (релизер): cd
Наличие сканов в содержимом раздачи: нет
Треклист:
1. Quartet 1 (14:42)
2. Quartet 2 (17:53)
3. Duo TW/MS (4:58)
4. Quartet 3 (20:05)
5. Quartet 4 (17:11)
6. Quartet 5 (4:51)
 
Лог создания рипа
Exact Audio Copy V1.0 beta 3 from 29. August 2011
EAC extraction logfile from 4. March 2015, 12:29
Larry Stabbins, Howard Riley, Tony Wren, Mark Sanders / Four At St. Cyprians
Used drive : ASUS DRW-24F1ST a Adapter: 0 ID: 0
Read mode : Secure
Utilize accurate stream : Yes
Defeat audio cache : Yes
Make use of C2 pointers : No
Read offset correction : 6
Overread into Lead-In and Lead-Out : No
Fill up missing offset samples with silence : Yes
Delete leading and trailing silent blocks : No
Null samples used in CRC calculations : Yes
Used interface : Native Win32 interface for Win NT & 2000
Gap handling : Appended to previous track
Used output format : User Defined Encoder
Selected bitrate : 320 kBit/s
Quality : High
Add ID3 tag : No
Command line compressor : D:\Programs\Exact Audio Copy\Flac\flac.exe
Additional command line options : -V -8 -T "Genre=%genre%" -T "Artist=%artist%" -T "Title=%title%" -T "Album=%albumtitle%" -T "Date=%year%" -T "Tracknumber=%tracknr%" -T "Comment=%comment%" %source%
TOC of the extracted CD
Track | Start | Length | Start sector | End sector
---------------------------------------------------------
1 | 0:00.00 | 14:44.12 | 0 | 66311
2 | 14:44.12 | 18:08.14 | 66312 | 147925
3 | 32:52.26 | 4:52.69 | 147926 | 169894
4 | 37:45.20 | 20:08.41 | 169895 | 260535
5 | 57:53.61 | 17:10.20 | 260536 | 337805
6 | 75:04.06 | 4:48.03 | 337806 | 359408
Track 1
Filename D:\EAC\01 Quartet 1.wav
Pre-gap length 0:00:02.00
Peak level 100.0 %
Extraction speed 6.0 X
Track quality 100.0 %
Test CRC E808BD3B
Copy CRC E808BD3B
Copy OK
Track 2
Filename D:\EAC\02 Quartet 2.wav
Pre-gap length 0:00:03.13
Peak level 100.0 %
Extraction speed 7.7 X
Track quality 100.0 %
Test CRC 281C3E6D
Copy CRC 281C3E6D
Copy OK
Track 3
Filename D:\EAC\03 Duo TW,MS.wav
Pre-gap length 0:00:03.39
Peak level 59.2 %
Extraction speed 7.7 X
Track quality 100.0 %
Test CRC E3021C7B
Copy CRC E3021C7B
Copy OK
Track 4
Filename D:\EAC\04 Quartet 3.wav
Pre-gap length 0:00:03.37
Peak level 100.0 %
Extraction speed 9.3 X
Track quality 100.0 %
Test CRC 150C8935
Copy CRC 150C8935
Copy OK
Track 5
Filename D:\EAC\05 Quartet 4.wav
Pre-gap length 0:00:03.20
Peak level 100.0 %
Extraction speed 10.3 X
Track quality 100.0 %
Test CRC 8D63E6B7
Copy CRC 8D63E6B7
Copy OK
Track 6
Filename D:\EAC\06 Quartet 5.wav
Pre-gap length 0:00:03.07
Peak level 100.0 %
Extraction speed 9.9 X
Track quality 100.0 %
Test CRC 5099808C
Copy CRC 5099808C
Copy OK
No errors occurred
End of status report
==== Log checksum E46CEF88319A8106252BE350941394211D08F994FD7B4E342E7B8418866ABF5B ====
 
Содержание индексной карты (.CUE)
REM GENRE Jazz
REM DATE 2006
REM DISCID 6012B806
REM COMMENT "ExactAudioCopy v1.0b3"
PERFORMER "Larry Stabbins, Howard Riley, Tony Wren, Mark Sanders"
TITLE "Four At St. Cyprians"
FILE "01 Quartet 1.wav" WAVE
TRACK 01 AUDIO
TITLE "Quartet 1"
PERFORMER "Larry Stabbins, Howard Riley, Tony Wren, Mark Sanders"
INDEX 01 00:00:00
TRACK 02 AUDIO
TITLE "Quartet 2"
PERFORMER "Larry Stabbins, Howard Riley, Tony Wren, Mark Sanders"
INDEX 00 14:40:74
FILE "02 Quartet 2.wav" WAVE
INDEX 01 00:00:00
TRACK 03 AUDIO
TITLE "Duo TW/MS"
PERFORMER "Larry Stabbins, Howard Riley, Tony Wren, Mark Sanders"
INDEX 00 18:04:50
FILE "03 Duo TW,MS.wav" WAVE
INDEX 01 00:00:00
TRACK 04 AUDIO
TITLE "Quartet 3"
PERFORMER "Larry Stabbins, Howard Riley, Tony Wren, Mark Sanders"
INDEX 00 04:49:32
FILE "04 Quartet 3.wav" WAVE
INDEX 01 00:00:00
TRACK 05 AUDIO
TITLE "Quartet 4"
PERFORMER "Larry Stabbins, Howard Riley, Tony Wren, Mark Sanders"
INDEX 00 20:05:21
FILE "05 Quartet 4.wav" WAVE
INDEX 01 00:00:00
TRACK 06 AUDIO
TITLE "Quartet 5"
PERFORMER "Larry Stabbins, Howard Riley, Tony Wren, Mark Sanders"
INDEX 00 17:07:13
FILE "06 Quartet 5.wav" WAVE
INDEX 01 00:00:00
Доп. информация: Recorded live at St. Cyprian's, United Kingdom, 2002-02-09
 
Состав
Double Bass – Tony Wren
Drums – Mark Sanders
Piano – Howard Riley
Saxophone – Larry Stabbins
По всем вопросам пишите личное сообщение пользователю M0p94ok.
10:29
340
Нет комментариев. Ваш будет первым!