Вы используете незарегистрированную версию компонента "Вкладки"!

Поиск

(Avant-Garde, Free Improvisation, NotTwo Records) [CD] The Rob Brown Trio (Daniel Levin, Satoshi Takeishi) - Live at Firehouse 12 - 2009, FLAC (tracks+.cue), lossless

(Avant-Garde, Free Improvisation, NotTwo Records) [CD] The Rob Brown Trio (Daniel Levin, Satoshi Takeishi) - Live at Firehouse 12 - 2009, FLAC (tracks+.cue), lossless
Треклист:
The Rob Brown Trio / Live at Firehouse 12
Жанр: Avant-Garde, Free Improvisation, NotTwo Records
Носитель: CD
Страна-производитель диска (релиза): Poland
Год издания: 2009
Издатель (лейбл): NotTwo Records
Номер по каталогу: MW 813-2
Аудиокодек: FLAC (*.flac)
Тип рипа: tracks+.cue
Битрейт аудио: lossless
Продолжительность: 44:38
Источник (релизер): я
Наличие сканов в содержимом раздачи: да
Треклист:
1. Quick Be Nimble 8:30
2. Walkabout 14:39
3. On a Lark 9:34
4. Stray(horn) 11:56
All compositions by Rob Brown.
Recorded at Firehouse 12 in New Heaven, CT on November 2, 2008.
Rob Brown – Alto Saxophone
Daniel Levin – Cello
Satoshi Takeishi – Percussion
 
Лог создания рипа
Exact Audio Copy V1.0 beta 4 from 7. December 2014
EAC extraction logfile from 8. February 2015, 15:57
The Rob Brown Trio / Live at Firehouse 12
Used drive : SlimtypeeNAU508 5 Adapter: 1 ID: 1
Read mode : Secure
Utilize accurate stream : Yes
Defeat audio cache : Yes
Make use of C2 pointers : No
Read offset correction : 6
Overread into Lead-In and Lead-Out : No
Fill up missing offset samples with silence : Yes
Delete leading and trailing silent blocks : No
Null samples used in CRC calculations : Yes
Used interface : Native Win32 interface for Win NT & 2000
Gap handling : Appended to previous track
Used output format : User Defined Encoder
Selected bitrate : 896 kBit/s
Quality : High
Add ID3 tag : No
Command line compressor : C:\Program Files (x86)\Exact Audio Copy\Flac\flac.exe
Additional command line options : -8 -V -T "ARTIST=%artist%" -T "TITLE=%title%" -T "ALBUM=%albumtitle%" -T "DATE=%year%" -T "TRACKNUMBER=%tracknr%" -T "TOTALTRACKS=%numtracks%" -T "GENRE=%genre%" -T "ALBUMARTIST=%albumartist%" -T "ALBUM ARTIST=%albumartist%" -T "COMMENT=EAC Secure Mode, Test & Copy, AccurateRip, FLAC -8" %source%
TOC of the extracted CD
Track | Start | Length | Start sector | End sector
---------------------------------------------------------
1 | 0:00.00 | 8:29.44 | 0 | 38218
2 | 8:29.44 | 14:39.02 | 38219 | 104145
3 | 23:08.46 | 9:34.17 | 104146 | 147212
4 | 32:42.63 | 11:55.40 | 147213 | 200877
Track 1
Filename C:\EAC rips\01 - Quick Be Nimble.wav
Pre-gap length 0:00:02.00
Peak level 97.7 %
Extraction speed 2.5 X
Track quality 99.9 %
Test CRC C77A7D97
Copy CRC C77A7D97
Accurately ripped (confidence 1) [7F93EF05] (AR v1)
Copy OK
Track 2
Filename C:\EAC rips\02 - Walkabout.wav
Peak level 97.7 %
Extraction speed 3.3 X
Track quality 100.0 %
Test CRC 1DEEDD7A
Copy CRC 1DEEDD7A
Accurately ripped (confidence 1) [AD4BC3FF] (AR v1)
Copy OK
Track 3
Filename C:\EAC rips\03 - On a Lark.wav
Peak level 97.7 %
Extraction speed 3.7 X
Track quality 100.0 %
Test CRC 08F9F932
Copy CRC 08F9F932
Accurately ripped (confidence 1) [A6F30066] (AR v1)
Copy OK
Track 4
Filename C:\EAC rips\04 - Stray(horn).wav
Peak level 97.7 %
Extraction speed 4.2 X
Track quality 100.0 %
Test CRC D7D348DE
Copy CRC D7D348DE
Accurately ripped (confidence 1) [0D4F8606] (AR v1)
Copy OK
All tracks accurately ripped
No errors occurred
End of status report
---- CUETools DB Plugin V2.1.4
[CTDB TOCID: 67c9NPbEU.lfrUHcndUQXnrHu58-] disk not present in database
Submit result: 67c9NPbEU.lfrUHcndUQXnrHu58- has been uploaded
==== Log checksum 4E86CBC267135D05BAB1E716BA0F88686E147C65B64968E66829F4A4EE2DF994 ====
 
Содержание индексной карты (.CUE)
REM GENRE "NotTwo Records MW 813-2"
REM DATE 2009
REM DISCID 2A0A7604
REM COMMENT "ExactAudioCopy v1.0b4"
PERFORMER "The Rob Brown Trio"
TITLE "Live at Firehouse 12"
FILE "01 - Quick Be Nimble.wav" WAVE
TRACK 01 AUDIO
TITLE "Quick Be Nimble"
PERFORMER "The Rob Brown Trio"
INDEX 01 00:00:00
FILE "02 - Walkabout.wav" WAVE
TRACK 02 AUDIO
TITLE "Walkabout"
PERFORMER "The Rob Brown Trio"
INDEX 01 00:00:00
FILE "03 - On a Lark.wav" WAVE
TRACK 03 AUDIO
TITLE "On a Lark"
PERFORMER "The Rob Brown Trio"
INDEX 01 00:00:00
FILE "04 - Stray(horn).wav" WAVE
TRACK 04 AUDIO
TITLE "Stray(horn)"
PERFORMER "The Rob Brown Trio"
INDEX 01 00:00:00
По всем вопросам пишите личное сообщение пользователю M0p94ok.
10:30
278
Нет комментариев. Ваш будет первым!