Вы используете незарегистрированную версию компонента "Вкладки"!

Поиск

(Free Improvisation) [CD] Jon Raskin (Liz Allbee, George Cremaschi, Gino Robair) - Quartet - 2007, FLAC (image+.cue), lossless

(Free Improvisation) [CD] Jon Raskin (Liz Allbee, George Cremaschi, Gino Robair) - Quartet - 2007, FLAC (image+.cue), lossless
Треклист:
Jon Raskin / Quartet
Жанр: Free Improvisation
Носитель: CD
Страна-производитель диска: US
Год издания: 2007
Издатель (лейбл): Rastascan Records
Номер по каталогу: BRD 059
Аудиокодек: FLAC (*.flac)
Тип рипа: image+.cue
Битрейт аудио: lossless
Продолжительность: 50:58
Источник (релизер): CD
Наличие сканов в содержимом раздачи: нет
Треклист:
1 Cracked Earth 6:03
2 Sound Barometer Reading 1 4:10
3 African Tulip 5:57
4 Swing Sing 2:14
5 Kandinsky 4:27
6 Sound Barometer Reading 2 5:01
7 Post Card 2 5:20
8 Ceilometer Reading 3:45
9 Post Card 1 3:14
10 Bleckner 4:44
11 Disdrometer Reading 2:47
12 Qupe 3:10
 
Лог создания рипа
Exact Audio Copy V1.0 beta 2 from 29. April 2011
EAC extraction logfile from 23. January 2014, 11:01
Jon Raskin / Quartet
Used drive : Optiarc DVD RW AD-7170A Adapter: 0 ID: 0
Read mode : Secure
Utilize accurate stream : Yes
Defeat audio cache : Yes
Make use of C2 pointers : No
Read offset correction : 48
Overread into Lead-In and Lead-Out : No
Fill up missing offset samples with silence : Yes
Delete leading and trailing silent blocks : No
Null samples used in CRC calculations : Yes
Used interface : Native Win32 interface for Win NT & 2000
Used output format : User Defined Encoder
Selected bitrate : 320 kBit/s
Quality : High
Add ID3 tag : No
Command line compressor : C:\Program Files\Exact Audio Copy\Flac\flac.exe
Additional command line options : -V -8 -T "Date=%year%" -T "Genre=%genre%" %source%
TOC of the extracted CD
Track | Start | Length | Start sector | End sector
---------------------------------------------------------
1 | 0:00.00 | 6:03.25 | 0 | 27249
2 | 6:03.25 | 4:10.41 | 27250 | 46040
3 | 10:13.66 | 5:57.30 | 46041 | 72845
4 | 16:11.21 | 2:14.47 | 72846 | 82942
5 | 18:25.68 | 4:27.68 | 82943 | 103035
6 | 22:53.61 | 5:01.52 | 103036 | 125662
7 | 27:55.38 | 5:20.35 | 125663 | 149697
8 | 33:15.73 | 3:45.27 | 149698 | 166599
9 | 37:01.25 | 3:14.43 | 166600 | 181192
10 | 40:15.68 | 4:44.43 | 181193 | 202535
11 | 45:00.36 | 2:47.50 | 202536 | 215110
12 | 47:48.11 | 3:10.00 | 215111 | 229360
Range status and errors
Selected range
Filename K:\ЕАС\Jon Raskin - Quartet.wav
Peak level 98.8 %
Extraction speed 2.0 X
Range quality 100.0 %
Test CRC A402FD93
Copy CRC A402FD93
Copy OK
No errors occurred
AccurateRip summary
Track 1 not present in database
Track 2 not present in database
Track 3 not present in database
Track 4 not present in database
Track 5 not present in database
Track 6 not present in database
Track 7 not present in database
Track 8 not present in database
Track 9 not present in database
Track 10 not present in database
Track 11 not present in database
Track 12 not present in database
None of the tracks are present in the AccurateRip database
End of status report
==== Log checksum 66A8DFE167F2E374D27C9C08C0C81F49C99EBDE5280213808E1B098AB8507800 ====
 
Содержание индексной карты (.CUE)
REM GENRE Jazz
REM DATE 2007
REM DISCID AA0BF20C
REM COMMENT "ExactAudioCopy v1.0b2"
PERFORMER "Jon Raskin"
TITLE "Quartet "
FILE "Jon Raskin - Quartet.flac" WAVE
TRACK 01 AUDIO
TITLE "Cracked Earth "
PERFORMER "Jon Raskin"
ISRC 000000000000
FLAGS DCP
INDEX 01 00:00:00
TRACK 02 AUDIO
TITLE "Sound Barometer Reading 1"
PERFORMER "Jon Raskin"
ISRC 000000000000
FLAGS DCP
INDEX 00 06:01:25
INDEX 01 06:03:25
TRACK 03 AUDIO
TITLE "African Tulip"
PERFORMER "Jon Raskin"
ISRC 000000000000
FLAGS DCP
INDEX 00 10:11:66
INDEX 01 10:13:66
TRACK 04 AUDIO
TITLE "Swing Sing"
PERFORMER "Jon Raskin"
ISRC 000000000000
FLAGS DCP
INDEX 00 16:09:21
INDEX 01 16:11:21
TRACK 05 AUDIO
TITLE "Kandinsky"
PERFORMER "Jon Raskin"
ISRC 000000000000
FLAGS DCP
INDEX 00 18:23:68
INDEX 01 18:25:68
TRACK 06 AUDIO
TITLE "Sound Barometer Reading 2"
PERFORMER "Jon Raskin"
ISRC 000000000000
FLAGS DCP
INDEX 00 22:51:24
INDEX 01 22:53:61
TRACK 07 AUDIO
TITLE "Post Card 2"
PERFORMER "Jon Raskin"
ISRC 000000000000
FLAGS DCP
INDEX 00 27:52:38
INDEX 01 27:55:38
TRACK 08 AUDIO
TITLE "Ceilometer Reading"
PERFORMER "Jon Raskin"
ISRC 000000000000
FLAGS DCP
INDEX 00 33:12:73
INDEX 01 33:15:73
TRACK 09 AUDIO
TITLE "Post Card 1"
PERFORMER "Jon Raskin"
ISRC 000000000000
FLAGS DCP
INDEX 00 36:58:25
INDEX 01 37:01:25
TRACK 10 AUDIO
TITLE "Bleckner"
PERFORMER "Jon Raskin"
ISRC 000000000000
FLAGS DCP
INDEX 00 40:13:31
INDEX 01 40:15:68
TRACK 11 AUDIO
TITLE "Disdrometer Reading"
PERFORMER "Jon Raskin"
ISRC 000000000000
FLAGS DCP
INDEX 00 44:57:36
INDEX 01 45:00:36
TRACK 12 AUDIO
TITLE "Qupe"
PERFORMER "Jon Raskin"
ISRC 000000000000
FLAGS DCP
INDEX 00 47:44:11
INDEX 01 47:48:11
Доп. информация: Recorded 4th March 2005 at Guerilla Recording Oakland, CA.
 
Состав
Double Bass, Electronics – George Cremaschi
Percussion, Electronics – Gino Robair
Saxophone – Jon Raskin
Trumpet, Percussion – Liz Allbee
Any questions -> support@pro-jazz.com. По всем вопросам пишите -> support@pro-jazz.com
22:47
190
Нет комментариев. Ваш будет первым!