Вы используете незарегистрированную версию компонента "Вкладки"!

Поиск

(Avant-Garde Jazz, Free Jazz) [CD] Cene Resnik - Joyful Spontaneity - 2012, FLAC (tracks+.cue), lossless

(Avant-Garde Jazz, Free Jazz) [CD] Cene Resnik - Joyful Spontaneity - 2012, FLAC (tracks+.cue), lossless
Треклист:
Cene Resnik - Joyful Spontaneity
Жанр: Avant-Garde Jazz, Free Jazz
Носитель: CD
Страна-производитель диска: Словения
Год издания: 2012
Издатель (лейбл): Zalozba Radia Student
Аудиокодек: FLAC (*.flac)
Тип рипа: tracks+.cue
Битрейт аудио: lossless
Продолжительность: 45:26
Источник (релизер): 6060842 (what)
Наличие сканов в содержимом раздачи: нет
Треклист:
01. Beams of Compassion (Resnik) - 5:17
02. Joyful Spontaneity (Resnik) - 6:05
03. Awareness (Resnik) - 4:03
04. Precious Jewel (Resnik) - 4:21
05. Land of the Noble One (Resnik) - 5:29
06. Generosity Beings (Resnik) - 5:22
07. Shikantaza (Resnik) - 9:18
08. Dedication (Resnik) - 5:31
Состав:
Cene Resnik - tenor saxophone
Emanuele Parrini - violin
Giovanni Maier - bass
Aljosa Jeric - drums
 
Лог создания рипа
X Lossless Decoder version 20130602 (143.2)
XLD extraction logfile from 2013-07-11 23:03:27 +0400
Cene Resnik / Joyful Spontaneity
Used drive : HL-DT-ST DVDRW GX30N (revision RP09)
Media type : Pressed CD
Ripper mode : XLD Secure Ripper
Disable audio cache : OK for the drive with a cache less than 1375KiB
Make use of C2 pointers : NO
Read offset correction : 6
Max retry count : 100
Gap status : Analyzed, Appended (except HTOA)
TOC of the extracted CD
Track | Start | Length | Start sector | End sector
---------------------------------------------------------
1 | 00:00:00 | 05:17:24 | 0 | 23798
2 | 05:17:24 | 06:05:33 | 23799 | 51206
3 | 11:22:57 | 04:02:57 | 51207 | 69413
4 | 15:25:39 | 04:20:71 | 69414 | 88984
5 | 19:46:35 | 05:29:18 | 88985 | 113677
6 | 25:15:53 | 05:22:32 | 113678 | 137859
7 | 30:38:10 | 09:18:33 | 137860 | 179742
8 | 39:56:43 | 05:30:58 | 179743 | 204550
AccurateRip Summary
Disc not found in AccurateRip DB.
All Tracks
Album gain : -4.54 dB
Peak : 0.977692
Statistics
Read error : 0
Jitter error (maybe fixed) : 0
Retry sector count : 0
Damaged sector count : 0
Track 01
Filename : /Users/anch/Music/FLAC/Cene Resnik - 2012 - Joyful Spontaneity [MP3 320]/01 - Beams Of Compassion.mp3
/Users/anch/Music/FLAC/Cene Resnik - 2012 - Joyful Spontaneity [MP3 V0]/01 - Beams Of Compassion.mp3
/Users/anch/Music/FLAC/Cene Resnik - 2012 - Joyful Spontaneity [FLAC]/01 - Beams Of Compassion.flac
Pre-gap length : 00:02:00
Track gain : -3.51 dB
Peak : 0.977448
CRC32 hash (test run) : 89BD2DE4
CRC32 hash : 89BD2DE4
CRC32 hash (skip zero) : 23CF1294
AccurateRip v1 signature : 6D24FD1B
AccurateRip v2 signature : 766EA328
->Track not present in AccurateRip database.
Statistics
Read error : 0
Jitter error (maybe fixed) : 0
Retry sector count : 0
Damaged sector count : 0
Track 02
Filename : /Users/anch/Music/FLAC/Cene Resnik - 2012 - Joyful Spontaneity [MP3 320]/02 - Joyful Spontaneity.mp3
/Users/anch/Music/FLAC/Cene Resnik - 2012 - Joyful Spontaneity [MP3 V0]/02 - Joyful Spontaneity.mp3
/Users/anch/Music/FLAC/Cene Resnik - 2012 - Joyful Spontaneity [FLAC]/02 - Joyful Spontaneity.flac
Pre-gap length : 00:01:74
Track gain : -4.08 dB
Peak : 0.977539
CRC32 hash (test run) : 8011018F
CRC32 hash : 8011018F
CRC32 hash (skip zero) : 335452C5
AccurateRip v1 signature : F3BDE7D4
AccurateRip v2 signature : 4B55ED59
->Track not present in AccurateRip database.
Statistics
Read error : 0
Jitter error (maybe fixed) : 0
Retry sector count : 0
Damaged sector count : 0
Track 03
Filename : /Users/anch/Music/FLAC/Cene Resnik - 2012 - Joyful Spontaneity [MP3 320]/03 - Awareness.mp3
/Users/anch/Music/FLAC/Cene Resnik - 2012 - Joyful Spontaneity [MP3 V0]/03 - Awareness.mp3
/Users/anch/Music/FLAC/Cene Resnik - 2012 - Joyful Spontaneity [FLAC]/03 - Awareness.flac
Pre-gap length : 00:01:74
Track gain : -7.77 dB
Peak : 0.977692
CRC32 hash (test run) : B791D236
CRC32 hash : B791D236
CRC32 hash (skip zero) : E2503369
AccurateRip v1 signature : D5A23BFB
AccurateRip v2 signature : 894ECEE1
->Track not present in AccurateRip database.
Statistics
Read error : 0
Jitter error (maybe fixed) : 0
Retry sector count : 0
Damaged sector count : 0
Track 04
Filename : /Users/anch/Music/FLAC/Cene Resnik - 2012 - Joyful Spontaneity [MP3 320]/04 - Precious Jewel.mp3
/Users/anch/Music/FLAC/Cene Resnik - 2012 - Joyful Spontaneity [MP3 V0]/04 - Precious Jewel.mp3
/Users/anch/Music/FLAC/Cene Resnik - 2012 - Joyful Spontaneity [FLAC]/04 - Precious Jewel.flac
Pre-gap length : 00:01:74
Track gain : -2.27 dB
Peak : 0.895874
CRC32 hash (test run) : 9467F257
CRC32 hash : 9467F257
CRC32 hash (skip zero) : B58D2462
AccurateRip v1 signature : BE8B1FF0
AccurateRip v2 signature : 76954856
->Track not present in AccurateRip database.
Statistics
Read error : 0
Jitter error (maybe fixed) : 0
Retry sector count : 0
Damaged sector count : 0
Track 05
Filename : /Users/anch/Music/FLAC/Cene Resnik - 2012 - Joyful Spontaneity [MP3 320]/05 - Land Of The Noble One.mp3
/Users/anch/Music/FLAC/Cene Resnik - 2012 - Joyful Spontaneity [MP3 V0]/05 - Land Of The Noble One.mp3
/Users/anch/Music/FLAC/Cene Resnik - 2012 - Joyful Spontaneity [FLAC]/05 - Land Of The Noble One.flac
Pre-gap length : 00:01:74
Track gain : -1.97 dB
Peak : 0.977478
CRC32 hash (test run) : 94733911
CRC32 hash : 94733911
CRC32 hash (skip zero) : 9FBE07FD
AccurateRip v1 signature : 527E9E64
AccurateRip v2 signature : 2F9ECDEC
->Track not present in AccurateRip database.
Statistics
Read error : 0
Jitter error (maybe fixed) : 0
Retry sector count : 0
Damaged sector count : 0
Track 06
Filename : /Users/anch/Music/FLAC/Cene Resnik - 2012 - Joyful Spontaneity [MP3 320]/06 - Generosity Beings.mp3
/Users/anch/Music/FLAC/Cene Resnik - 2012 - Joyful Spontaneity [MP3 V0]/06 - Generosity Beings.mp3
/Users/anch/Music/FLAC/Cene Resnik - 2012 - Joyful Spontaneity [FLAC]/06 - Generosity Beings.flac
Pre-gap length : 00:01:74
Track gain : -4.74 dB
Peak : 0.977539
CRC32 hash (test run) : A6DF88E7
CRC32 hash : A6DF88E7
CRC32 hash (skip zero) : AF7DEF29
AccurateRip v1 signature : 56979D20
AccurateRip v2 signature : 4AFDB35C
->Track not present in AccurateRip database.
Statistics
Read error : 0
Jitter error (maybe fixed) : 0
Retry sector count : 0
Damaged sector count : 0
Track 07
Filename : /Users/anch/Music/FLAC/Cene Resnik - 2012 - Joyful Spontaneity [MP3 320]/07 - Shikantaza.mp3
/Users/anch/Music/FLAC/Cene Resnik - 2012 - Joyful Spontaneity [MP3 V0]/07 - Shikantaza.mp3
/Users/anch/Music/FLAC/Cene Resnik - 2012 - Joyful Spontaneity [FLAC]/07 - Shikantaza.flac
Pre-gap length : 00:01:74
Track gain : 0.10 dB
Peak : 0.957550
CRC32 hash (test run) : 7770B47C
CRC32 hash : 7770B47C
CRC32 hash (skip zero) : 3123F023
AccurateRip v1 signature : 24856999
AccurateRip v2 signature : 043748CB
->Track not present in AccurateRip database.
Statistics
Read error : 0
Jitter error (maybe fixed) : 0
Retry sector count : 0
Damaged sector count : 0
Track 08
Filename : /Users/anch/Music/FLAC/Cene Resnik - 2012 - Joyful Spontaneity [MP3 320]/08 - Dedication.mp3
/Users/anch/Music/FLAC/Cene Resnik - 2012 - Joyful Spontaneity [MP3 V0]/08 - Dedication.mp3
/Users/anch/Music/FLAC/Cene Resnik - 2012 - Joyful Spontaneity [FLAC]/08 - Dedication.flac
Pre-gap length : 00:01:74
Track gain : -3.76 dB
Peak : 0.977631
CRC32 hash (test run) : 74D75A55
CRC32 hash : 74D75A55
CRC32 hash (skip zero) : F9E6E5DB
AccurateRip v1 signature : 71A2B200
AccurateRip v2 signature : DF490ACE
->Track not present in AccurateRip database.
Statistics
Read error : 0
Jitter error (maybe fixed) : 0
Retry sector count : 0
Damaged sector count : 0
No errors occurred
End of status report
 
Содержание индексной карты (.CUE)
TITLE "Joyful Spontaneity"
PERFORMER "Cene Resnik"
REM GENRE "Jazz"
REM DATE "2012"
REM DISCID 760AA708
REM REPLAYGAIN_ALBUM_GAIN -4.54 dB
REM REPLAYGAIN_ALBUM_PEAK 0.977692
FILE "01 - Beams of Compassion.flac" WAVE
TRACK 01 AUDIO
TITLE "Beams of Compassion"
REM REPLAYGAIN_TRACK_GAIN -3.51 dB
REM REPLAYGAIN_TRACK_PEAK 0.977448
INDEX 01 00:00:00
TRACK 02 AUDIO
TITLE "Joyful Spontaneity"
REM REPLAYGAIN_TRACK_GAIN -4.08 dB
REM REPLAYGAIN_TRACK_PEAK 0.977539
INDEX 00 05:15:25
FILE "02 - Joyful Spontaneity.flac" WAVE
INDEX 01 00:00:00
TRACK 03 AUDIO
TITLE "Awareness"
REM REPLAYGAIN_TRACK_GAIN -7.77 dB
REM REPLAYGAIN_TRACK_PEAK 0.977692
INDEX 00 06:03:34
FILE "03 - Awareness.flac" WAVE
INDEX 01 00:00:00
TRACK 04 AUDIO
TITLE "Precious Jewel"
REM REPLAYGAIN_TRACK_GAIN -2.27 dB
REM REPLAYGAIN_TRACK_PEAK 0.895874
INDEX 00 04:00:58
FILE "04 - Precious Jewel.flac" WAVE
INDEX 01 00:00:00
TRACK 05 AUDIO
TITLE "Land of the Noble One"
REM REPLAYGAIN_TRACK_GAIN -1.97 dB
REM REPLAYGAIN_TRACK_PEAK 0.977478
INDEX 00 04:18:72
FILE "05 - Land of the Noble One.flac" WAVE
INDEX 01 00:00:00
TRACK 06 AUDIO
TITLE "Generosity Beings"
REM REPLAYGAIN_TRACK_GAIN -4.74 dB
REM REPLAYGAIN_TRACK_PEAK 0.977539
INDEX 00 05:27:19
FILE "06 - Generosity Beings.flac" WAVE
INDEX 01 00:00:00
TRACK 07 AUDIO
TITLE "Shikantaza"
REM REPLAYGAIN_TRACK_GAIN 0.10 dB
REM REPLAYGAIN_TRACK_PEAK 0.957550
INDEX 00 05:20:33
FILE "07 - Shikantaza.flac" WAVE
INDEX 01 00:00:00
TRACK 08 AUDIO
TITLE "Dedication"
REM REPLAYGAIN_TRACK_GAIN -3.76 dB
REM REPLAYGAIN_TRACK_PEAK 0.977631
INDEX 00 09:16:34
FILE "08 - Dedication.flac" WAVE
INDEX 01 00:00:00
 
Об исполнителе (группе)
Cene Resnik (born June 2, 1978 in Ljubljana, Slovenia) is a jazz saxophonist from Slovenia.
Cene Resnik graduated in saxophone at the Jazz conservatory in Klagenfurt in 2007. During his studies, he participated in workshops by Reggie Workman, Doug Hammond and later Joe Zawinul, with whom he had an opportunity to play with in the year of 2007 in Austria, Croatia and in Maribor, Slovenia. In 2011 Resnik recorded and performed with Robert Jukič group Operation Charlie.
In December 2012 Music Label Radio Študent released his first album Joyful Spontaneity with his quartet (Emanuele Parrini - violin, Giovanni Maier - double bass, Aljoša Jerič - drums). Music on the album represents free improvised compositions as a reflection of his twelve-year study and practice of Tibetan Buddhist meditation.
Resnik has performed at the jazz festival in Ljubljana, Maribor, Prishtina, Klagenfurt, including clubs in Italy, Croatia, Austria, Slovenia and New York. Recently Cene Resnik Quartet performed at 54th Ljubljana Jazz Festival where they recorded live concert for a Portuguese record label Clean Feed.
Any questions -> support@pro-jazz.com. По всем вопросам пишите -> support@pro-jazz.com
22:47
160
Нет комментариев. Ваш будет первым!