Поиск

(Free Improvisation) [CD] Howard Riley - Two is One - 2006, FLAC (image+.cue), lossless

(Free Improvisation) [CD] Howard Riley - Two is One - 2006, FLAC (image+.cue), lossless
Howard Riley / Two is One
Жанр: Free Improvisation
Носитель: CD
Страна-производитель диска: UK
Год издания: 2006
Издатель (лейбл): Emanem
Номер по каталогу: 4127
Страна: UK
Аудиокодек: FLAC (*.flac)
Тип рипа: image+.cue
Битрейт аудио: lossless
Продолжительность: 1:02:17
Источник (релизер): CD
Наличие сканов в содержимом раздачи: да
Треклист:
1 Two Is One 5:20
2 Closely 7:30
3 Empathy 4:36
4 Second Thoughts 5:09
5 Doubling 5:20
6 Osoiretsim 6:41
7 Hear And Now 7:06
8 With Strings 7:18
9 Unique 7:05
10 After The Storm 5:35
 
Лог создания рипа
Exact Audio Copy V1.0 beta 3 from 29. August 2011
EAC extraction logfile from 14. May 2014, 1:43
Howard Riley / Two is One
Used drive : HL-DT-STDVDRAM GT32N Adapter: 0 ID: 0
Read mode : Secure
Utilize accurate stream : Yes
Defeat audio cache : Yes
Make use of C2 pointers : No
Read offset correction : 103
Overread into Lead-In and Lead-Out : No
Fill up missing offset samples with silence : Yes
Delete leading and trailing silent blocks : No
Null samples used in CRC calculations : Yes
Used interface : Native Win32 interface for Win NT & 2000
Used output format : User Defined Encoder
Selected bitrate : 1024 kBit/s
Quality : High
Add ID3 tag : No
Command line compressor : C:\Program Files (x86)\FLAC\flac.exe
Additional command line options : -V -8 -T "Date=%year%" -T "Genre=%genre%" %source%
TOC of the extracted CD
Track | Start | Length | Start sector | End sector
---------------------------------------------------------
1 | 0:00.00 | 5:24.24 | 0 | 24323
2 | 5:24.24 | 7:33.74 | 24324 | 58372
3 | 12:58.23 | 4:40.42 | 58373 | 79414
4 | 17:38.65 | 5:12.74 | 79415 | 102888
5 | 22:51.64 | 5:24.00 | 102889 | 127188
6 | 28:15.64 | 6:45.20 | 127189 | 157583
7 | 35:01.09 | 7:09.74 | 157584 | 189832
8 | 42:11.08 | 7:22.00 | 189833 | 222982
9 | 49:33.08 | 7:09.00 | 222983 | 255157
10 | 56:42.08 | 5:35.00 | 255158 | 280282
Range status and errors
Selected range
Filename C:\Users\be4ver\Documents\cd rips\Howard Riley - Two is One (2006)\Howard Riley - Two is One.wav
Peak level 98.8 %
Extraction speed 2.2 X
Range quality 100.0 %
Test CRC AC0D9C7F
Copy CRC AC0D9C7F
Copy OK
No errors occurred
AccurateRip summary
Track 1 not present in database
Track 2 not present in database
Track 3 not present in database
Track 4 not present in database
Track 5 not present in database
Track 6 not present in database
Track 7 not present in database
Track 8 not present in database
Track 9 not present in database
Track 10 not present in database
None of the tracks are present in the AccurateRip database
End of status report
==== Log checksum 6256DF8F8BA64E8713F76BFB5F04DD8CB15E6A00F94EACF4AB8408C6BA366AF7 ====
 
Содержание индексной карты (.CUE)
REM GENRE "Free Improvisation"
REM DATE 2006
REM DISCID 7D0E990A
REM COMMENT "ExactAudioCopy v1.0b3"
PERFORMER "Howard Riley"
TITLE "Two is One"
FILE "Howard Riley - Two is One.flac" WAVE
TRACK 01 AUDIO
TITLE "Two Is One"
PERFORMER "Howard Riley"
INDEX 01 00:00:00
TRACK 02 AUDIO
TITLE "Closely"
PERFORMER "Howard Riley"
INDEX 00 05:20:24
INDEX 01 05:24:24
TRACK 03 AUDIO
TITLE "Empathy"
PERFORMER "Howard Riley"
INDEX 00 12:54:23
INDEX 01 12:58:23
TRACK 04 AUDIO
TITLE "Second Thoughts"
PERFORMER "Howard Riley"
INDEX 00 17:34:65
INDEX 01 17:38:65
TRACK 05 AUDIO
TITLE "Doubling"
PERFORMER "Howard Riley"
INDEX 00 22:47:64
INDEX 01 22:51:64
TRACK 06 AUDIO
TITLE "Osoiretsim"
PERFORMER "Howard Riley"
INDEX 00 28:11:64
INDEX 01 28:15:64
TRACK 07 AUDIO
TITLE "Hear And Now"
PERFORMER "Howard Riley"
INDEX 00 34:57:09
INDEX 01 35:01:09
TRACK 08 AUDIO
TITLE "With Strings"
PERFORMER "Howard Riley"
INDEX 00 42:07:08
INDEX 01 42:11:08
TRACK 09 AUDIO
TITLE "Unique"
PERFORMER "Howard Riley"
INDEX 00 49:29:08
INDEX 01 49:33:08
TRACK 10 AUDIO
TITLE "After The Storm"
PERFORMER "Howard Riley"
INDEX 00 56:38:08
INDEX 01 56:42:08
 
Лог проверки качества
AUDIOCHECKER v2.0 beta (build 457) - by Dester - opdester@freemail.hu
~~~~~~~~~~~~~~~~~~~~~~~~~~~~~~~~~~
Started at: ïîíåäåëüíèê, 19. 05. 2014. - 14:49.56
1 file found
1 -===- E:\torrent_test\rips\Howard Riley - Two is One (2006)\Howard Riley - Two is One.flac
Extracted successfully
Conclusion: this track is MPEG with probability 91%
Tempfile successfully deleted.
Finished at: ïîíåäåëüíèê, 19. 05. 2014. - 14:52.47 (operation time: 0:02.51)
 
Скриншот спектра частот
Доп. информация: Recorded on 4 July 2005 at Gateway Studios, London.
Music for two pianos overdubbed.
 
Об исполнителе (группе)
 
Об альбоме (сборнике)
Excerpts from sleeve notes:
The two pianos on this CD are both played by me. I tried to keep the approach to this undertaking as simple as possible in the studio. I recorded the first piano as if it were a solo recording, then immediately added the second piano while reacting to the playback of the first. Musically everything is improvised and everything is a 'first take', although I had made a pre-recording decision to play short pieces and to be aware of the need for a variety of feelings and textures. The only exception to this approach is OSOIRETSIM, which is derived from a piece by one of my favourite pianists, Thelonious Monk. This is my first overdubbed piano recording for 25 years.
HOWARD RILEY (2005)
http://www.emanemdisc.com/E4127.html
 
Состав
Mastered By, Photography By, Design – Martin Davidson
Piano [Left Channel], Piano [Overdubbed Right Channel], Music By, Liner Notes – Howard Riley
Recorded By [Assistant] – Gurjit Dhinsa
Recorded By [Digital] – Steve Lowe (2)
02:07
344
Нет комментариев. Ваш будет первым!