Вы используете незарегистрированную версию компонента "Вкладки"!

Поиск

(Contemporary Jazz, Free Jazz, Jazz-Rock) [CD] The Wrong Object - Platform One - 2007, FLAC (image+.cue), lossless

(Contemporary Jazz, Free Jazz, Jazz-Rock) [CD] The Wrong Object - Platform One - 2007, FLAC (image+.cue), lossless
Треклист:
The Wrong Object / Platform One
Жанр: Contemporary Jazz, Free Jazz, Jazz-Rock
Носитель: CD
Страна-производитель диска: UK
Год издания: 2007
Издатель (лейбл): Jazzprint
Номер по каталогу: JPVP138CD
Страна: UK
Аудиокодек: FLAC (*.flac)
Тип рипа: image+.cue
Битрейт аудио: lossless
Продолжительность: 1:11:30
Источник (релизер): CD
Наличие сканов в содержимом раздачи: да
Треклист:
1 Intruth 1:44
2 Honeypump Riff 6:04
3 Big Swifty 5:12
4 Platform 1 - Intro 2:56
5 Platform 1 8:05
6 Filthy Habits 8:05
7 This Affects That 8:08
8 Wet Weather Wet 5:31
9 Scarlet Mine 7:58
10 Tinseltown 8:51
11 Hello Max 11:51
 
Лог создания рипа
Exact Audio Copy V1.0 beta 3 from 29. August 2011
EAC extraction logfile from 14. March 2014, 1:17
The Wrong Object / Platform One
Used drive : HL-DT-STDVDRAM GT32N Adapter: 0 ID: 0
Read mode : Secure
Utilize accurate stream : Yes
Defeat audio cache : Yes
Make use of C2 pointers : No
Read offset correction : 103
Overread into Lead-In and Lead-Out : No
Fill up missing offset samples with silence : Yes
Delete leading and trailing silent blocks : No
Null samples used in CRC calculations : Yes
Used interface : Native Win32 interface for Win NT & 2000
Used output format : User Defined Encoder
Selected bitrate : 1024 kBit/s
Quality : High
Add ID3 tag : No
Command line compressor : C:\Program Files (x86)\FLAC\flac.exe
Additional command line options : -V -8 -T "Date=%year%" -T "Genre=%genre%" %source%
TOC of the extracted CD
Track | Start | Length | Start sector | End sector
---------------------------------------------------------
1 | 0:00.00 | 1:44.51 | 0 | 7850
2 | 1:44.51 | 6:00.00 | 7851 | 34850
3 | 7:44.51 | 5:10.33 | 34851 | 58133
4 | 12:55.09 | 2:56.74 | 58134 | 71407
5 | 15:52.08 | 5:20.08 | 71408 | 95415
6 | 21:12.16 | 8:02.65 | 95416 | 131630
7 | 29:15.06 | 8:05.41 | 131631 | 168046
8 | 37:20.47 | 5:29.73 | 168047 | 192794
9 | 42:50.45 | 7:56.02 | 192795 | 228496
10 | 50:46.47 | 8:50.49 | 228497 | 268295
11 | 59:37.21 | 11:52.39 | 268296 | 321734
Range status and errors
Selected range
Filename C:\Users\be4ver\Documents\cd rips\wrong object\The Wrong Object - Platform One.wav
Peak level 100.0 %
Extraction speed 2.2 X
Range quality 99.9 %
Test CRC 8336A45F
Copy CRC 8336A45F
Copy OK
No errors occurred
AccurateRip summary
Track 1 not present in database
Track 2 not present in database
Track 3 not present in database
Track 4 not present in database
Track 5 not present in database
Track 6 not present in database
Track 7 not present in database
Track 8 not present in database
Track 9 not present in database
Track 10 not present in database
Track 11 not present in database
None of the tracks are present in the AccurateRip database
End of status report
==== Log checksum C2056B86AE5BE2E31471F570E35F607AAF4B1631690BDAC8CCC363822E0EAE26 ====
 
Содержание индексной карты (.CUE)
REM GENRE Neo-Prog
REM DATE 2007
REM DISCID A310C10B
REM COMMENT "ExactAudioCopy v1.0b3"
PERFORMER "The Wrong Object"
TITLE "Platform One"
FILE "The Wrong Object - Platform One.flac" WAVE
TRACK 01 AUDIO
TITLE "Intruth"
PERFORMER "The Wrong Object"
INDEX 01 00:00:00
TRACK 02 AUDIO
TITLE "Honeypump Riff"
PERFORMER "The Wrong Object"
INDEX 01 01:44:51
TRACK 03 AUDIO
TITLE "Big Swifty"
PERFORMER "The Wrong Object"
INDEX 01 07:44:51
TRACK 04 AUDIO
TITLE "Platform 1 - Intro"
PERFORMER "The Wrong Object"
INDEX 01 12:55:09
TRACK 05 AUDIO
TITLE "Platform 1"
PERFORMER "The Wrong Object"
INDEX 01 15:52:08
TRACK 06 AUDIO
TITLE "Filthy Habits"
PERFORMER "The Wrong Object"
INDEX 01 21:12:16
TRACK 07 AUDIO
TITLE "This Affects That"
PERFORMER "The Wrong Object"
INDEX 01 29:15:06
TRACK 08 AUDIO
TITLE "Wet Weather Wet"
PERFORMER "The Wrong Object"
INDEX 01 37:20:47
TRACK 09 AUDIO
TITLE "Scarlet Mine"
PERFORMER "The Wrong Object"
INDEX 01 42:50:45
TRACK 10 AUDIO
TITLE "Tinseltown"
PERFORMER "The Wrong Object"
INDEX 01 50:46:47
TRACK 11 AUDIO
TITLE "Hello Max"
PERFORMER "The Wrong Object"
INDEX 01 59:37:21
 
Лог проверки качества
AUDIOCHECKER v2.0 beta (build 457) - by Dester - opdester@freemail.hu
~~~~~~~~~~~~~~~~~~~~~~~~~~~~~~~~~~
Started at: ïîíåäåëüíèê, 19. 05. 2014. - 15:40.43
1 file found
1 -===- E:\torrent_test\rips\wrong object\The Wrong Object - Platform One.flac
Extracted successfully
Conclusion: this track is CDDA with probability 100%
Tempfile successfully deleted.
Finished at: ïîíåäåëüíèê, 19. 05. 2014. - 15:44.25 (operation time: 0:03.42)
 
Скриншот спектра частот
 
Об исполнителе (группе)
 
Состав
Annie Whitehead: trombone;
Harry Beckett: trumpet, flugelhorn;
Michel Delville: guitar, guitar synth, electronics;
Fred Delplancq: tenor sax;
Jean-Paul Estiévenart: trumpet;
Damien Polard: bass, electronics;
Laurent Delchambre: drums, assorted percussion;
Yves Dellicour: soprano sax, bass clarinet;
Frank van der Kooij: baritone sax (11).
По всем вопросам пишите личное сообщение пользователю M0p94ok.
02:08
216
Нет комментариев. Ваш будет первым!