Поиск

(Free Improvisation, Avant-Garde Jazz, Experimental) [CD] Keiji Haino, Jozef Dumoulin, Teun Verbruggen - The Miracles Of Only One Thing - 2017, FLAC (tracks+.cue), lossless

(Free Improvisation, Avant-Garde Jazz, Experimental) [CD] Keiji Haino, Jozef Dumoulin, Teun Verbruggen - The Miracles Of Only One Thing - 2017, FLAC (tracks+.cue), lossless
Треклист:
Keiji Haino, Jozef Dumoulin, Teun Verbruggen / The Miracles Of Only One Thing Жанр: Free Improvisation, Avant-Garde Jazz, Experimental
Страна-производитель диска: EU (Belgium)
Год издания: 2017
Издатель (лейбл): Sub Rosa
Номер по каталогу: SR 439
Страна исполнителя: Japan/Belgium
Аудиокодек: FLAC (*.flac)
Тип рипа: tracks+.cue
Битрейт аудио: lossless
Продолжительность: 58:57
Источник (релизер): спасибо fujianironchain
Наличие сканов: нет
Треклист:
1. Non-Dark Destinations
2. Hotel Chaika
3. Snow Is Frequent, Though Light, In Winter
4. Tonight
 
Лог создания рипа
X Lossless Decoder version 20161007 (149.3)
XLD extraction logfile from 2017-01-04 11:56:29 +0100
Keiji Haino, Jozef Dumoulin, Teun Verbruggen / The Miracles Of Only One Thing
Used drive : PIONEER DVD-RW DVRTS09 (revision Q90B)
Media type : Pressed CD
Ripper mode : XLD Secure Ripper
Disable audio cache : OK for the drive with a cache less than 1375KiB
Make use of C2 pointers : NO
Read offset correction : 96
Max retry count : 100
Gap status : Analyzed, Appended (except HTOA)
TOC of the extracted CD
Track | Start | Length | Start sector | End sector
---------------------------------------------------------
1 | 00:00:00 | 25:49:26 | 0 | 116200
2 | 25:49:26 | 19:23:38 | 116201 | 203463
3 | 45:12:64 | 05:11:26 | 203464 | 226814
4 | 50:24:15 | 08:37:34 | 226815 | 265623
AccurateRip Summary
Disc not found in AccurateRip DB.
All Tracks
Album gain : -5.29 dB
Peak : 1.000000
Statistics
Read error : 0
Jitter error (maybe fixed) : 0
Retry sector count : 1
Damaged sector count : 0
Track 01
Filename : /XLD/Keiji Haino, Jozef Dumoulin, Teun Verbruggen - 2016 - The Miracles Of Only One Thing [FLAC]/01 Non-Dark Destinations.flac
Pre-gap length : 00:02:00
Track gain : -5.12 dB
Peak : 1.000000
CRC32 hash (test run) : BDA6BF6E
CRC32 hash : BDA6BF6E
CRC32 hash (skip zero) : 8CB862F0
AccurateRip v1 signature : 3EABF133
AccurateRip v2 signature : 4E75C9E1
->Track not present in AccurateRip database.
Statistics
Read error : 0
Jitter error (maybe fixed) : 0
Retry sector count : 0
Damaged sector count : 0
Track 02
Filename : /XLD/Keiji Haino, Jozef Dumoulin, Teun Verbruggen - 2016 - The Miracles Of Only One Thing [FLAC]/02 Hotel Chaika.flac
Pre-gap length : 00:02:00
Track gain : -6.20 dB
Peak : 1.000000
CRC32 hash (test run) : E4A3B585
CRC32 hash : E4A3B585
CRC32 hash (skip zero) : D039963B
AccurateRip v1 signature : C258B66D
AccurateRip v2 signature : 7C089192
->Track not present in AccurateRip database.
Statistics
Read error : 0
Jitter error (maybe fixed) : 0
Retry sector count : 1
Damaged sector count : 0
Track 03
Filename : /XLD/Keiji Haino, Jozef Dumoulin, Teun Verbruggen - 2016 - The Miracles Of Only One Thing [FLAC]/03 Snow Is Frequent, Though Light, In Winter.flac
Track gain : 7.41 dB
Peak : 0.545532
CRC32 hash (test run) : FF104E33
CRC32 hash : FF104E33
CRC32 hash (skip zero) : 6C1E36BA
AccurateRip v1 signature : 87A8D4FF
AccurateRip v2 signature : C98CD553
->Track not present in AccurateRip database.
Statistics
Read error : 0
Jitter error (maybe fixed) : 0
Retry sector count : 0
Damaged sector count : 0
Track 04
Filename : /XLD/Keiji Haino, Jozef Dumoulin, Teun Verbruggen - 2016 - The Miracles Of Only One Thing [FLAC]/04 Tonight.flac
Pre-gap length : 00:02:00
Track gain : -4.01 dB
Peak : 0.999969
CRC32 hash (test run) : 5E94745D
CRC32 hash : 5E94745D
CRC32 hash (skip zero) : F5CD7BB6
AccurateRip v1 signature : AA364789
AccurateRip v2 signature : 1DD174C3
->Track not present in AccurateRip database.
Statistics
Read error : 0
Jitter error (maybe fixed) : 0
Retry sector count : 0
Damaged sector count : 0
No errors occurred
End of status report
-----BEGIN XLD SIGNATURE-----
LNh2J8QuMoaNKE.aGs8gw290PEK_v9mOWMR2OupOpLhtVqfxAXMsUNL2mS9HknJ9cpYc2WqHY65sEpJPbIVOe_xvIi0qPmjrhNGlotK
-----END XLD SIGNATURE-----
 
Содержание индексной карты (.CUE)
TITLE "The Miracles Of Only One Thing"
PERFORMER "Keiji Haino, Jozef Dumoulin, Teun Verbruggen"
REM DATE "2016"
REM DISCID 270DD504
REM REPLAYGAIN_ALBUM_GAIN -5.29 dB
REM REPLAYGAIN_ALBUM_PEAK 1.000000
FILE "01 Non-Dark Destinations.flac" WAVE
TRACK 01 AUDIO
TITLE "Non-Dark Destinations"
REM REPLAYGAIN_TRACK_GAIN -5.12 dB
REM REPLAYGAIN_TRACK_PEAK 1.000000
INDEX 01 00:00:00
TRACK 02 AUDIO
TITLE "Hotel Chaika"
REM REPLAYGAIN_TRACK_GAIN -6.20 dB
REM REPLAYGAIN_TRACK_PEAK 1.000000
INDEX 00 25:47:26
FILE "02 Hotel Chaika.flac" WAVE
INDEX 01 00:00:00
FILE "03 Snow Is Frequent, Though Light, In Winter.flac" WAVE
TRACK 03 AUDIO
TITLE "Snow Is Frequent, Though Light, In Winter"
REM REPLAYGAIN_TRACK_GAIN 7.41 dB
REM REPLAYGAIN_TRACK_PEAK 0.545532
INDEX 01 00:00:00
TRACK 04 AUDIO
TITLE "Tonight"
REM REPLAYGAIN_TRACK_GAIN -4.01 dB
REM REPLAYGAIN_TRACK_PEAK 0.999969
INDEX 00 05:09:26
FILE "04 Tonight.flac" WAVE
INDEX 01 00:00:00
 
Об альбоме
Japanese legend, Keiji Haino, meets two of Belgium's most active and valued musicians, keyboardist Jozef Dumoulin (Lilly Joel) and drummer Teun Verbruggen (Othin Spake). The Miracles Of Only One Thing is a deep and intense testimony of this meeting. Keiji Haino, without any doubt one of the most important musicians from the Japanese underground scene, is at his best, Teun Verbruggen and Jozef Dumoulin did a three-week tour in Japan in September of 2015, playing concerts as a duet, but also solo and with local musicians. One of those musicians was hero Keiji Haino, whose work has spanned rock, free improvisation, noise, percussion, psychedelic music, minimalism and drones. Besides his legendary bands Fushitsusha and Lost Aaraaff, he has worked with artists and bands like Boris, The Melvins, Jim O'Rourke, Oren Ambarchi, Peter Brötzmann and Steve Noble. As for Dumoulin and Verbruggen, they are both known for their always refreshing and groundbreaking work that breaks the barriers between free improvisation, electro, jazz and more. The three teamed up for a studio recording and a recorded live-show. Out of all the material, they distilled an album that reflects both the excitement of the new bond as well as the deep and vast sonic landscapes that their joined forces laid bare.
 
Состав
Keiji Haino - guitar, flute, gongs, voice
Jozef Dumoulin - Fender Rhodes
Teun Verbruggen - drums, electronics
22:46
295
Нет комментариев. Ваш будет первым!