Поиск

(Chamber Jazz / Fusion / Jazz-Rock) [CD] Diab Quintet - Seagull Tango - 2016, FLAC (tracks+.cue), lossless

(Chamber Jazz / Fusion / Jazz-Rock) [CD] Diab Quintet - Seagull Tango - 2016, FLAC (tracks+.cue), lossless
Треклист:
Diab Quintet / Seagull Tango
Жанр: Chamber Jazz / Fusion / Jazz-Rock
Носитель: CD
Страна-производитель диска (релиза): Belgium
Год издания: 2016
Издатель (лейбл): homerecords.be
Номер по каталогу: 4446146
Страна исполнителя (группы): Belgium
Аудиокодек: FLAC (*.flac)
Тип рипа: tracks+.cue
Битрейт аудио: lossless
Продолжительность: 51:24 min
Источник (релизер): свой рип с CD
Наличие сканов в содержимом раздачи:
Треклист:
1. La No-Buleria Del Fantasma Azul. 6:09
2. Seagull Tango. 9:27
3. Oeil de Lynx. 5:40
4. Valse 9. 6:02
5. A l'aube. 4:55
6. Down The Rock. 4:21
7. Maple Leaves. 6:29
8. Que Pasa? 3:44
9. L'equilibriste. 4:30
 
Лог создания рипа
Exact Audio Copy V1.0 beta 3 from 29. August 2011
EAC extraction logfile from 8. January 2017, 20:28
Diab Quintet / Seagull Tango
Used drive : ATAPI iHAS124 E Adapter: 0 ID: 0
Read mode : Secure
Utilize accurate stream : Yes
Defeat audio cache : Yes
Make use of C2 pointers : No
Read offset correction : 6
Overread into Lead-In and Lead-Out : No
Fill up missing offset samples with silence : Yes
Delete leading and trailing silent blocks : No
Null samples used in CRC calculations : Yes
Used interface : Native Win32 interface for Win NT & 2000
Gap handling : Appended to previous track
Used output format : Internal WAV Routines
Sample format : 44.100 Hz; 16 Bit; Stereo
TOC of the extracted CD
Track | Start | Length | Start sector | End sector
---------------------------------------------------------
1 | 0:00.00 | 6:09.72 | 0 | 27746
2 | 6:09.72 | 9:27.60 | 27747 | 70331
3 | 15:37.57 | 5:40.60 | 70332 | 95891
4 | 21:18.42 | 6:02.48 | 95892 | 123089
5 | 27:21.15 | 4:55.14 | 123090 | 145228
6 | 32:16.29 | 4:21.70 | 145229 | 164873
7 | 36:38.24 | 6:29.43 | 164874 | 194091
8 | 43:07.67 | 3:44.59 | 194092 | 210950
9 | 46:52.51 | 4:30.12 | 210951 | 231212
Track 1
Filename C:\_EAC\01. La No-Buleria Del Fantasma Azul.wav
Pre-gap length 0:00:02.00
Peak level 98.8 %
Extraction speed 1.2 X
Track quality 100.0 %
Test CRC 51D8655A
Copy CRC 51D8655A
Track not present in AccurateRip database
Copy OK
Track 2
Filename C:\_EAC\02. Seagull Tango.wav
Peak level 98.8 %
Extraction speed 1.4 X
Track quality 100.0 %
Test CRC 8EC4E3C1
Copy CRC 8EC4E3C1
Track not present in AccurateRip database
Copy OK
Track 3
Filename C:\_EAC\03. Oeil de Lynx.wav
Peak level 95.8 %
Extraction speed 1.6 X
Track quality 100.0 %
Test CRC BF5AF77B
Copy CRC BF5AF77B
Track not present in AccurateRip database
Copy OK
Track 4
Filename C:\_EAC\04. Valse 9.wav
Peak level 98.8 %
Extraction speed 1.7 X
Track quality 100.0 %
Test CRC AB6413FA
Copy CRC AB6413FA
Track not present in AccurateRip database
Copy OK
Track 5
Filename C:\_EAC\05. A l'aube.wav
Peak level 98.8 %
Extraction speed 1.8 X
Track quality 100.0 %
Test CRC 8BFED104
Copy CRC 8BFED104
Track not present in AccurateRip database
Copy OK
Track 6
Filename C:\_EAC\06. Down The Rock.wav
Peak level 98.8 %
Extraction speed 1.6 X
Track quality 99.9 %
Test CRC EAC8127F
Copy CRC EAC8127F
Track not present in AccurateRip database
Copy OK
Track 7
Filename C:\_EAC\07. Maple Leaves.wav
Peak level 98.8 %
Extraction speed 2.0 X
Track quality 100.0 %
Test CRC 9EAA62D0
Copy CRC 9EAA62D0
Track not present in AccurateRip database
Copy OK
Track 8
Filename C:\_EAC\08. Que Pasa_.wav
Peak level 98.8 %
Extraction speed 1.7 X
Track quality 99.9 %
Test CRC D1D0D381
Copy CRC D1D0D381
Track not present in AccurateRip database
Copy OK
Track 9
Filename C:\_EAC\09. L'equilibriste.wav
Peak level 98.8 %
Extraction speed 2.1 X
Track quality 100.0 %
Test CRC E3F368DE
Copy CRC E3F368DE
Track not present in AccurateRip database
Copy OK
None of the tracks are present in the AccurateRip database
No errors occurred
End of status report
==== Log checksum B8BDF8A782D6E15248457B57488FDAC9CB7E7566A29FDA2E3DAA7C9A9DCDBD29 ====
 
Содержание индексной карты (.CUE)
REM GENRE Jazz-Rock
REM DATE 2016
REM DISCID 7B0C0A09
REM COMMENT "ExactAudioCopy v1.0b3"
PERFORMER "Diab Quintet"
TITLE "Seagull Tango"
FILE "01. La No-Buleria Del Fantasma Azul.wav" WAVE
TRACK 01 AUDIO
TITLE "La No-Buleria Del Fantasma Azul"
PERFORMER "Diab Quintet"
INDEX 01 00:00:00
FILE "02. Seagull Tango.wav" WAVE
TRACK 02 AUDIO
TITLE "Seagull Tango"
PERFORMER "Diab Quintet"
INDEX 01 00:00:00
FILE "03. Oeil de Lynx.wav" WAVE
TRACK 03 AUDIO
TITLE "Oeil de Lynx"
PERFORMER "Diab Quintet"
INDEX 01 00:00:00
FILE "04. Valse 9.wav" WAVE
TRACK 04 AUDIO
TITLE "Valse 9"
PERFORMER "Diab Quintet"
INDEX 01 00:00:00
FILE "05. A l'aube.wav" WAVE
TRACK 05 AUDIO
TITLE "A l'aube"
PERFORMER "Diab Quintet"
INDEX 01 00:00:00
FILE "06. Down The Rock.wav" WAVE
TRACK 06 AUDIO
TITLE "Down The Rock"
PERFORMER "Diab Quintet"
INDEX 01 00:00:00
FILE "07. Maple Leaves.wav" WAVE
TRACK 07 AUDIO
TITLE "Maple Leaves"
PERFORMER "Diab Quintet"
INDEX 01 00:00:00
FILE "08. Que Pasa_.wav" WAVE
TRACK 08 AUDIO
TITLE "Que Pasa_"
PERFORMER "Diab Quintet"
INDEX 01 00:00:00
FILE "09. L'equilibriste.wav" WAVE
TRACK 09 AUDIO
TITLE "L'equilibriste"
PERFORMER "Diab Quintet"
INDEX 01 00:00:00
 
Лог проверки качества
-----------------------
DON'T MODIFY THIS FILE
-----------------------
PERFORMER: auCDtect Task Manager, ver. 1.6.0 RC1 build 1.6.0.1
Copyright (c) 2008-2010 y-soft. All rights reserved
http://y-soft.org
ANALYZER: auCDtect: CD records authenticity detector, version 0.8.2
Copyright (c) 2004 Oleg Berngardt. All rights reserved.
Copyright (c) 2004 Alexander Djourik. All rights reserved.
FILE: 01. La No-Buleria Del Fantasma Azul.flac
Size: 37289549 Hash: 69E836D926C0DAB19634E7D5AFCE2F9B Accuracy: -m0
Conclusion: CDDA 99%
Signature: 32B4ED8CA7E12EC1B7D28D48E68B651CC684BDAB
FILE: 02. Seagull Tango.flac
Size: 54188537 Hash: EC38486DD1BAFAC17CA94EDBDD0F2B83 Accuracy: -m0
Conclusion: CDDA 100%
Signature: 2C66E7515FA19334DCCE40D0B6FFBC54C5B67E48
FILE: 03. Oeil de Lynx.flac
Size: 28241724 Hash: D9D2F4CCE2B8F7596EC3DFA65F99559C Accuracy: -m0
Conclusion: CDDA 100%
Signature: 32887BF121EE5A91C2110B6E09EDEF64BEBEC8AD
FILE: 04. Valse 9.flac
Size: 34169158 Hash: E180F5BA5B95FFC7509ECEDB0548FBE7 Accuracy: -m0
Conclusion: CDDA 100%
Signature: 9F721092D27E7CDC9DD9577289F8EC6AC4144659
FILE: 05. A l'aube.flac
Size: 27114650 Hash: 31989E816341F3507C213715197BD07E Accuracy: -m0
Conclusion: CDDA 100%
Signature: D624B2C73462E68B16E3BD2894B1221E536475D1
FILE: 06. Down The Rock.flac
Size: 30260586 Hash: 00C4931BED74FE5BAAFC21860F97B9BD Accuracy: -m0
Conclusion: CDDA 100%
Signature: 4022D0ABD81755820F5756EBE40623365DE0158C
FILE: 07. Maple Leaves.flac
Size: 35723049 Hash: 5EE9E560C58C552896607DC8E0CF1FCB Accuracy: -m0
Conclusion: CDDA 100%
Signature: 04C2C5D8F0812C56DC2BC5EC31FE8F3966D4AEED
FILE: 08. Que Pasa.flac
Size: 20572686 Hash: 46DF95A27F76E99C589A49590E558FB7 Accuracy: -m0
Conclusion: CDDA 100%
Signature: 6075B32806D0F0E41DA72A3D668ED5C0C40E7CB2
FILE: 09. L'equilibriste.flac
Size: 23783230 Hash: 2AFAE1A2D77158AECA3F8DB0FEAB7F4F Accuracy: -m0
Conclusion: CDDA 100%
Signature: C54D4E3C9D90DA9C5515EEFF7AB220766BD6CC40
 
Об альбоме (сборнике)
releases August 4, 2016
Diab Quintet is an acoustic band without frontiers, proposing an original music at the crossroads between classical, jazz, world music and improvisation. This band with experienced musicians, each one coming from different backgrounds, works the sonorities by mixing enchanting melodies with swinging rhythms. With their communicative energy and strong with their scenic experience of these past years, they propose a new vibrant and powerful musical repertoire, and bring you in contrasted journeys, between joy and nostalgia, always imprinted with freedom.
All your senses will be awakened listening to the themes of their second album “Seagull Tango”.
 
Состав
- Jonathan De Neck / Compositions, Diatonic Accordion
- Esinam Dogbatse / Flute, Percussion
- Sebastien Taminiau / Violin, Double Bass
- Corentin Dellicour / cello
- Rui Salgado / Double Bass, Guitar
22:46
366
Нет комментариев. Ваш будет первым!