Вы используете незарегистрированную версию компонента "Вкладки"!

Поиск

(Free Improvisation / Avant-Garde Jazz) [CD] Ken Vandermark's Topology Nonet feat. Joe McPhee (Josh Berman, Jeb Bishop, Tim Daisy, Kent Kessler, Fred Lonberg-Holm ...) - Impressions of PO Music - 2013, FLAC (tracks+.cue), lossless

(Free Improvisation / Avant-Garde Jazz) [CD] Ken Vandermark's Topology Nonet feat. Joe McPhee (Josh Berman, Jeb Bishop, Tim Daisy, Kent Kessler, Fred Lonberg-Holm ...) - Impressions of PO Music - 2013, FLAC (tracks+.cue), lossless
Треклист:
Ken Vandermark's Topology Nonet feat. Joe McPhee - Impressions of PO Music
Жанр: Free Improvisation / Avant-Garde Jazz
Носитель: CD
Страна-производитель диска: USA
Год издания: 2013
Издатель (лейбл): Okka Disk
Номер по каталогу: OD12095
Аудиокодек: FLAC (*.flac)
Тип рипа: tracks+.cue
Битрейт аудио: lossless
Продолжительность: 00:57:01
Источник (релизер): nnm, Джаз Клуб, 9 декабря, 2013 / спасибо mishka1981
Наличие сканов в содержимом раздачи: да / *.jpg (300 dpi)
Треклист:
1. Impressions of Astral Spirits/Age (11:03)
2. Impressions of Future Retrospective (10:19)
3. Impressions of Sweet Dragon (07:49)
4. Impressions of Goodbye Tom B. (04:47)
5. Impressions of Eroc Tinu (06:22)
6. Impressions of Pablo/Violets For Pia (10:30)
7. Impressions of Knox (06:20)
Доп. информация:
Musicians:
JOE McPHEE - tenor saxophone
JASON ADASIEWICZ - vibraphone
JOSH BERMAN - cornet
JEB BISHOP - trombone
TIM DAISY - drums
KENT KESSLER - bass
FRED LONBERG-HOLM - cello and electronics
DAVE REMPIS - saxophones
KEN VANDERMARK - clarinets and tenor saxophone
Recorded by Bob Weston at Strobe Recording, Chicago, on June 2, 2011
KEN VANDERMARK'S TOPOLOGY NONET feat. JOE McPHEE - Impressions of PO Music okkadisk.com
KEN VANDERMARK'S TOPOLOGY NONET feat. JOE McPHEE - Impressions of PO Music allaboutjazz.com
KEN VANDERMARK Official Site
KEN VANDERMARK from Wikipedia, the free encyclopedia
JOE McPHEE Official Site
JOE McPHEE from Wikipedia, the free encyclopedia
JEB BISHOP Official Site
JEB BISHOP from Wikipedia, the free encyclopedia
PAAL NILSSEN-LOVE Official Site
PAAL NILSSEN-LOVE from Wikipedia, the free encyclopedia
 
... back ...
 
Лог создания рипа
Exact Audio Copy V1.0 beta 1 from 15. November 2010
EAC extraction logfile from 9. December 2013, 14:53
Ken Vandermark's TOPOLOGY Nonet featuring Joe McPhee / Impressions Of Po Music
Used drive : TSSTcorpCDDVDW TS-L633A Adapter: 3 ID: 0
Read mode : Secure
Utilize accurate stream : Yes
Defeat audio cache : Yes
Make use of C2 pointers : No
Read offset correction : 6
Overread into Lead-In and Lead-Out : No
Fill up missing offset samples with silence : Yes
Delete leading and trailing silent blocks : No
Null samples used in CRC calculations : Yes
Used interface : Installed external ASPI interface
Gap handling : Appended to previous track
Used output format : User Defined Encoder
Selected bitrate : 896 kBit/s
Quality : High
Add ID3 tag : No
Command line compressor : C:\Program Files\Exact Audio Copy\FLAC\FLAC.EXE
Additional command line options : -8 -V -T "ARTIST=%a" -T "TITLE=%t" -T "ALBUM=%g" -T "DATE=%y" -T "TRACKNUMBER=%n" -T "TOTALTRACKS=%x" -T "GENRE=%m" -T "ALBUMARTIST=%v" -T "ALBUM ARTIST=%v" -T "COMMENT=EAC Secure Mode, Test & Copy, AccurateRip, FLAC -8" %s
TOC of the extracted CD
Track | Start | Length | Start sector | End sector
---------------------------------------------------------
1 | 0:00.00 | 10:58.74 | 0 | 49423
2 | 10:58.74 | 10:19.48 | 49424 | 95896
3 | 21:18.47 | 7:50.08 | 95897 | 131154
4 | 29:08.55 | 4:43.72 | 131155 | 152451
5 | 33:52.52 | 6:22.52 | 152452 | 181153
6 | 40:15.29 | 10:29.24 | 181154 | 228352
7 | 50:44.53 | 6:17.13 | 228353 | 256640
Track 1
Filename C:\MY RIPS\01 - Impressions of Astral Spirits-Age.wav
Pre-gap length 0:00:02.00
Peak level 92.1 %
Extraction speed 1.2 X
Track quality 100.0 %
Test CRC 3258847A
Copy CRC 3258847A
Accurately ripped (confidence 1) [A7985FE6]
Copy OK
Track 2
Filename C:\MY RIPS\02 - Impressions of Future Retrospective.wav
Peak level 92.1 %
Extraction speed 1.4 X
Track quality 99.9 %
Test CRC 3EC8E252
Copy CRC 3EC8E252
Accurately ripped (confidence 1) [6F49781B]
Copy OK
Track 3
Filename C:\MY RIPS\03 - Impressions of Sweet Dragon.wav
Peak level 71.6 %
Extraction speed 1.7 X
Track quality 100.0 %
Test CRC 616A01DF
Copy CRC 616A01DF
Accurately ripped (confidence 1) [3F71B732]
Copy OK
Track 4
Filename C:\MY RIPS\04 - Impressions of Goodbye Tom B..wav
Peak level 82.6 %
Extraction speed 1.7 X
Track quality 100.0 %
Test CRC 1EDFC743
Copy CRC 1EDFC743
Accurately ripped (confidence 1) [BCDEB08C]
Copy OK
Track 5
Filename C:\MY RIPS\05 - Impressions of Eroc Tinu.wav
Peak level 92.1 %
Extraction speed 1.9 X
Track quality 100.0 %
Test CRC 349F08F9
Copy CRC 349F08F9
Accurately ripped (confidence 1) [EAA3523D]
Copy OK
Track 6
Filename C:\MY RIPS\06 - Impressions of Pablo-Violets For Pia.wav
Peak level 92.1 %
Extraction speed 2.1 X
Track quality 100.0 %
Test CRC B81337A6
Copy CRC B81337A6
Accurately ripped (confidence 1) [BCEBFE8C]
Copy OK
Track 7
Filename C:\MY RIPS\07 - Impressions of Knox.wav
Peak level 92.1 %
Extraction speed 2.2 X
Track quality 100.0 %
Test CRC AD24AB83
Copy CRC AD24AB83
Accurately ripped (confidence 1) [29381F1E]
Copy OK
All tracks accurately ripped
No errors occurred
End of status report
==== Log checksum E7B017659E890AC0C69FB75571EDF5E33AB936330EE6A041A9D98E38CE282CBE ====
 
Содержание индексной карты (.CUE)
REM DISCID 4A0D5D07
REM COMMENT "ExactAudioCopy v1.0b1"
PERFORMER "Ken Vandermark's TOPOLOGY Nonet featuring Joe McPhee"
TITLE "Impressions Of Po Music"
FILE "01 - Impressions of Astral Spirits-Age.wav" WAVE
TRACK 01 AUDIO
TITLE "Impressions of Astral Spirits\Age"
PERFORMER "Ken Vandermark's TOPOLOGY Nonet featuring Joe McPhee"
INDEX 01 00:00:00
FILE "02 - Impressions of Future Retrospective.wav" WAVE
TRACK 02 AUDIO
TITLE "Impressions of Future Retrospective"
PERFORMER "Ken Vandermark's TOPOLOGY Nonet featuring Joe McPhee"
INDEX 01 00:00:00
FILE "03 - Impressions of Sweet Dragon.wav" WAVE
TRACK 03 AUDIO
TITLE "Impressions of Sweet Dragon"
PERFORMER "Ken Vandermark's TOPOLOGY Nonet featuring Joe McPhee"
INDEX 01 00:00:00
FILE "04 - Impressions of Goodbye Tom B..wav" WAVE
TRACK 04 AUDIO
TITLE "Impressions of Goodbye Tom B."
PERFORMER "Ken Vandermark's TOPOLOGY Nonet featuring Joe McPhee"
INDEX 01 00:00:00
FILE "05 - Impressions of Eroc Tinu.wav" WAVE
TRACK 05 AUDIO
TITLE "Impressions of Eroc Tinu"
PERFORMER "Ken Vandermark's TOPOLOGY Nonet featuring Joe McPhee"
INDEX 01 00:00:00
FILE "06 - Impressions of Pablo-Violets For Pia.wav" WAVE
TRACK 06 AUDIO
TITLE "Impressions of Pablo\Violets For Pia"
PERFORMER "Ken Vandermark's TOPOLOGY Nonet featuring Joe McPhee"
INDEX 01 00:00:00
FILE "07 - Impressions of Knox.wav" WAVE
TRACK 07 AUDIO
TITLE "Impressions of Knox"
PERFORMER "Ken Vandermark's TOPOLOGY Nonet featuring Joe McPhee"
INDEX 01 00:00:00
 
auCDtect Task Manager
-----------------------
DON'T MODIFY THIS FILE
-----------------------
PERFORMER: auCDtect Task Manager, ver. 1.5.1RC6 build 1.5.1.7
Copyright (c) 2008-2010 y-soft. All rights reserved
http://y-soft.org
ANALYZER: auCDtect: CD records authenticity detector, version 0.8.2
Copyright (c) 2004 Oleg Berngardt. All rights reserved.
Copyright (c) 2004 Alexander Djourik. All rights reserved.
FILE: 07 - Impressions of Knox.flac
Size: 40290212 Hash: 046AC7559CCAF6C599BCCC1D9922A88E Accuracy: -m0
Conclusion: CDDA 100%
Signature: DC0C9163AFAC419CC43ED9B198C39C53F5EF3288
FILE: 06 - Impressions of Pablo-Violets For Pia.flac
Size: 56746334 Hash: F8897D4C80FBB3F22A6ED5300E521CB6 Accuracy: -m0
Conclusion: CDDA 100%
Signature: E87173F72C63863E8A38FFDF6CD9FCCE972E2203
FILE: 05 - Impressions of Eroc Tinu.flac
Size: 38297921 Hash: 2F7CE4EF7EA4ABF5E9C5F53254F413CC Accuracy: -m0
Conclusion: CDDA 100%
Signature: E996A7FC4660EE78D7CE3A723CBDBF4C1E712BAD
FILE: 04 - Impressions of Goodbye Tom B..flac
Size: 20331267 Hash: 571961E03ABCD0A08321AC8E454BD7D8 Accuracy: -m0
Conclusion: CDDA 100%
Signature: 06EB652BC903FB2142293B1B139FF6CD45D17708
FILE: 03 - Impressions of Sweet Dragon.flac
Size: 36121632 Hash: 55537E49090D9982C4CBA66577EA220B Accuracy: -m0
Conclusion: CDDA 100%
Signature: 93A5E63775529BB5307BF78DEB5DEE26287FEBB8
FILE: 02 - Impressions of Future Retrospective.flac
Size: 58516287 Hash: F22B077BD802DC4C64349CC99B95080D Accuracy: -m0
Conclusion: CDDA 100%
Signature: E1D2004823092BBBF0B977CADFA1C28369B074D7
FILE: 01 - Impressions of Astral Spirits-Age.flac
Size: 68784355 Hash: B5D4723F0C17A30DB3F4A65A2F4E6A77 Accuracy: -m0
Conclusion: CDDA 100%
Signature: 73C8AA819783775FCA61C006E678DDD628FEE523
... релизы с участием JOE McPHEE на трекере ...
По всем вопросам пишите личное сообщение пользователю M0p94ok.
21:23
215
Нет комментариев. Ваш будет первым!