Вы используете незарегистрированную версию компонента "Вкладки"!

Поиск

(Contemporary Jazz) [CD] Who's Who (Matthieu Michel, Mathias Demoulin et Patrick Muller) - Noir & Blanc - 1996, FLAC (tracks+.cue), lossless

(Contemporary Jazz) [CD] Who's Who (Matthieu Michel, Mathias Demoulin et Patrick Muller) - Noir & Blanc - 1996, FLAC (tracks+.cue), lossless
Треклист:
Who's Who / Noir & Blanc
Жанр: Contemporary Jazz
Носитель: CD
Страна-производитель диска: Switzerland
Год издания: 1996
Издатель (лейбл): produced by the artists
Аудиокодек: FLAC (*.flac)
Тип рипа: tracks+.cue
Битрейт аудио: lossless
Продолжительность: 50:42
Источник (релизер): я
Наличие сканов в содержимом раздачи: нет
Треклист:
1. Vol de nuit (Patrick Muller) 9:16
2. Noir et Blanc (Patrick Muller, Mathias Demoulin et Matthieu Michel) 6:58
3. La Javanaise (Serge Gainsbourg) 7:20
4. The Chick on the Water (Matthieu Michel) 6:16
5. Ma chemise vole (Patrick Muller) 4:27
6. 04/08/94 (Patrick Muller) 6:07
7. Okipik (Matthieu Michel) 6:08
8. Tre voci (Patrick Muller) 4:11
Enregistré en 1995 en concert lors de la tournée suisse (Grand-Lancy, Bâle, Berne, Zug, Zurich, Lausanne, Sion), ainsi qu’au festival de l’AMR 95 (Genève). « La Javanaise » a été enregistré en concert au Teatro Lux (Massagno-Lugano), janvier 1996.
Matthieu Michel – bugle, trompette
Patrick Muller – piano, mélodica, percussion
Mathias Demoulin – contrebasse
 
Лог создания рипа
Exact Audio Copy V1.0 beta 3 from 29. August 2011
EAC extraction logfile from 3. November 2013, 20:20
Who's Who / Noir & Blanc
Used drive : SlimtypeeNAU508 5 Adapter: 1 ID: 0
Read mode : Secure
Utilize accurate stream : Yes
Defeat audio cache : Yes
Make use of C2 pointers : No
Read offset correction : 6
Overread into Lead-In and Lead-Out : No
Fill up missing offset samples with silence : Yes
Delete leading and trailing silent blocks : No
Null samples used in CRC calculations : Yes
Used interface : Native Win32 interface for Win NT & 2000
Gap handling : Appended to previous track
Used output format : User Defined Encoder
Selected bitrate : 768 kBit/s
Quality : High
Add ID3 tag : No
Command line compressor : C:\Program Files (x86)\Exact Audio Copy\Flac\flac.exe
Additional command line options : -8 -V -T "ARTIST=%artist%" -T "TITLE=%title%" -T "ALBUM=%albumtitle%" -T "DATE=%year%" -T "TRACKNUMBER=%tracknr%" -T "GENRE=%genre%" -T "PERFORMER=%albuminterpret%" -T "COMPOSER=%composer%" %haslyrics%--tag-from-file=LYRICS="%lyricsfile%"%haslyrics% -T "ALBUMARTIST=%albumartist%" -T "DISCNUMBER=%cdnumber%" -T "TOTALDISCS=%totalcds%" -T "TOTALTRACKS=%numtracks%" -T "COMMENT=%comment%" %source% -o %dest%
TOC of the extracted CD
Track | Start | Length | Start sector | End sector
---------------------------------------------------------
1 | 0:00.32 | 9:16.10 | 32 | 41741
2 | 9:16.42 | 6:57.43 | 41742 | 73059
3 | 16:14.10 | 7:19.57 | 73060 | 106041
4 | 23:33.67 | 6:15.48 | 106042 | 134214
5 | 29:49.40 | 4:26.70 | 134215 | 154234
6 | 34:16.35 | 6:07.35 | 154235 | 181794
7 | 40:23.70 | 6:07.55 | 181795 | 209374
8 | 46:31.50 | 4:11.05 | 209375 | 228204
Track 1
Filename C:\EAC rips\01 - Vol de nuit.wav
Pre-gap length 0:00:02.32
Peak level 59.8 %
Extraction speed 1.2 X
Track quality 100.0 %
Test CRC E6316AB9
Copy CRC E6316AB9
Accurately ripped (confidence 1) [9F2B5747] (AR v1)
Copy OK
Track 2
Filename C:\EAC rips\02 - Noir et Blanc.wav
Pre-gap length 0:00:03.50
Peak level 68.7 %
Extraction speed 1.4 X
Track quality 100.0 %
Test CRC CA3604F9
Copy CRC CA3604F9
Track not present in AccurateRip database
Copy OK
Track 3
Filename C:\EAC rips\03 - La Javanaise.wav
Pre-gap length 0:00:05.00
Peak level 66.2 %
Extraction speed 1.6 X
Track quality 100.0 %
Test CRC B9105797
Copy CRC B9105797
Track not present in AccurateRip database
Copy OK
Track 4
Filename C:\EAC rips\04 - The Chick on the Water.wav
Pre-gap length 0:00:04.50
Peak level 53.9 %
Extraction speed 1.7 X
Track quality 100.0 %
Test CRC 1550EB10
Copy CRC 1550EB10
Track not present in AccurateRip database
Copy OK
Track 5
Filename C:\EAC rips\05 - Ma chemise vole.wav
Pre-gap length 0:00:05.00
Peak level 91.2 %
Extraction speed 1.6 X
Track quality 99.9 %
Test CRC 7C38CB6E
Copy CRC 7C38CB6E
Track not present in AccurateRip database
Copy OK
Track 6
Filename C:\EAC rips\06 - 04-08-94.wav
Pre-gap length 0:00:07.00
Peak level 53.8 %
Extraction speed 1.9 X
Track quality 100.0 %
Test CRC 3A5A7926
Copy CRC 3A5A7926
Track not present in AccurateRip database
Copy OK
Track 7
Filename C:\EAC rips\07 - Okipik.wav
Pre-gap length 0:00:03.25
Peak level 61.4 %
Extraction speed 2.0 X
Track quality 100.0 %
Test CRC 50F3472A
Copy CRC 50F3472A
Track not present in AccurateRip database
Copy OK
Track 8
Filename C:\EAC rips\08 - Tre voci.wav
Pre-gap length 0:00:06.00
Peak level 63.1 %
Extraction speed 2.1 X
Track quality 100.0 %
Test CRC 2E6D31B0
Copy CRC 2E6D31B0
Track not present in AccurateRip database
Copy OK
1 track(s) accurately ripped
7 track(s) not present in the AccurateRip database
Some tracks could not be verified as accurate
No errors occurred
End of status report
---- CUETools DB Plugin V2.1.4
[CTDB TOCID: fjGw.l898BSiHV77XZbKwK2VpYQ-] disk not present in database
Submit result: fjGw.l898BSiHV77XZbKwK2VpYQ- has been uploaded
==== Log checksum 74FC2E5E7C2C7454E7FBDDB6565C15F1FCEBCC2E11EEAA911F1DEEF065280917 ====
 
Содержание индексной карты (.CUE)
REM GENRE Jazz
REM DATE 1996
REM DISCID 780BE208
REM COMMENT "ExactAudioCopy v1.0b3"
PERFORMER "Who's Who"
TITLE "Noir & Blanc"
FILE "01 - Vol de nuit.wav" WAVE
TRACK 01 AUDIO
TITLE "Vol de nuit"
PERFORMER "Who's Who"
PREGAP 00:00:32
INDEX 01 00:00:00
TRACK 02 AUDIO
TITLE "Noir et Blanc"
PERFORMER "Who's Who"
INDEX 00 09:12:35
FILE "02 - Noir et Blanc.wav" WAVE
INDEX 01 00:00:00
TRACK 03 AUDIO
TITLE "La Javanaise"
PERFORMER "Who's Who"
INDEX 00 06:52:43
FILE "03 - La Javanaise.wav" WAVE
INDEX 01 00:00:00
TRACK 04 AUDIO
TITLE "The Chick on the Water"
PERFORMER "Who's Who"
INDEX 00 07:15:07
FILE "04 - The Chick on the Water.wav" WAVE
INDEX 01 00:00:00
TRACK 05 AUDIO
TITLE "Ma chemise vole"
PERFORMER "Who's Who"
INDEX 00 06:10:48
FILE "05 - Ma chemise vole.wav" WAVE
INDEX 01 00:00:00
TRACK 06 AUDIO
TITLE "04/08/94"
PERFORMER "Who's Who"
INDEX 00 04:19:70
FILE "06 - 04-08-94.wav" WAVE
INDEX 01 00:00:00
TRACK 07 AUDIO
TITLE "Okipik"
PERFORMER "Who's Who"
INDEX 00 06:04:10
FILE "07 - Okipik.wav" WAVE
INDEX 01 00:00:00
TRACK 08 AUDIO
TITLE "Tre voci"
PERFORMER "Who's Who"
INDEX 00 06:01:55
FILE "08 - Tre voci.wav" WAVE
INDEX 01 00:00:00
По всем вопросам пишите личное сообщение пользователю M0p94ok.
21:22
128
Нет комментариев. Ваш будет первым!