Вы используете незарегистрированную версию компонента "Вкладки"!

Поиск

(Free Improvisation / Avant-Garde Jazz) [CD] Elton Dean, Paul Dunmall, Paul Rogers, Tony Bianco - Remembrance [2CD] - 2013, rec. 2004 [NoBusiness Records NBCD 59-60], FLAC (tracks+.cue), lossless

(Free Improvisation / Avant-Garde Jazz) [CD] Elton Dean, Paul Dunmall, Paul Rogers, Tony Bianco - Remembrance [2CD] - 2013, rec. 2004 [NoBusiness Records NBCD 59-60], FLAC (tracks+.cue), lossless
Треклист:
Elton Dean, Paul Dunmall, Paul Rogers, Tony Bianco - Remembrance
Жанр: Free Improvisation / Avant-Garde Jazz
Носитель: CD
Страна-производитель диска: Lithuania
Год издания: 2013
Издатель (лейбл): NoBusiness Records
Номер по каталогу: NBCD 59-60
Аудиокодек: FLAC (*.flac)
Тип рипа: tracks+.cue
Битрейт аудио: lossless
Продолжительность: CD 1 - 01:00:55 / CD 2 - 00:54:28
Источник (релизер): nnm, Джаз Клуб, 6 марта, 2014 / спасибо mishka1981
Наличие сканов в содержимом раздачи: да
Треклист:
CD 1
1. Trio I (Dunmall / Rogers / Bianco) (23:27)
2. Quartet (Dean / Dunmall / Rogers / Bianco) (37:32)
CD 2
1. Duo (Rogers / Bianco) (28:30)
2. Trio II (Dean / Rogers / Bianco) (26:01)
Доп. информация:
Musicians:
Elton Dean - alto sax
Paul Dunmall - tenor sax
Paul Rogers - bass
Tony Bianco - drums
Recorded 9th February, 2004 at Steam Room Studios, London
© 2013, NoBusiness Records
Elton Dean, Paul Dunmall, Paul Rogers, Tony Bianco - Remembrance nobusinessrecords.com
Elton Dean, Paul Dunmall, Paul Rogers, Tony Bianco - Remembrance allaboutjazz.com
Elton Dean from Wikipedia, the free encyclopedia
Paul Dunmall Official Site
Paul Dunmall from Wikipedia, the free encyclopedia
Tony Bianco Official Site
Tony Bianco from Wikipedia, the free encyclopedia
 
... back ...
 
... photo ...

 
... review ...
English saxophonist Elton Dean has inspired several memorials since his untimely demise in 2006. But there is always space for another when it is as vital as Remembrance, a two CD set from 2004 issued by the Lithuanian NoBusiness imprint. Best known for his seminal work with the jazz rock pioneers Soft Machine, Dean also amassed a substantial discography in the company of luminaries such as Keith Tippett, Kenny Wheeler, Roswell Rudd andHoward Riley. All the three other participants on this slice of unfettered, free jazz interaction collaborated with Dean repeatedly from the early 1990s onwards, explaining the easy going ambience and apparently effortless mesh of this expansive well recorded studio session. It is Dean's wiry alto saxophone along with Paul Dunmall's brawny tenor, which provides most of the narrative thrust here, accompanied by the hypnotic pulse laid down by bassist Paul Rogers and drummer Tony Bianco. Though titled presumably in Dean's honor, he features on only half of the 115-minute program, once in the full quartet, and once with the rhythm section, with the remainder comprising a trio with Dunmall and an outing for the rhythm team alone. Both reeds adopt a measured approach, taking their time to build up to what turn out to be fleeting crescendos, worrying phrases and turning them over to find what secrets they might reveal. At times Dean even recalls Ornette Coleman in the vocalized quality of his aching, occasionally lyrical, cries.
The 37-minute "Quartet" forms the center piece of the offering. In spite of long acquaintance, it begins with conversational probing between the horns, while Bianco roils from the off, abetted by Rogers' feverish heartbeat. The bassist's slashing arco drives Dunmall to a forceful, energetic excursion. Later Dean announces his entry with an electrifying wail which presages a climax of tremendous interplay. Bianco's multidirectional tattoo proves a near constant throughout, acting as a springboard which allows the reedmen to go wherever they choose, but even on the 28-minute duo cut, the energy levels remain high. It's a shame the permutation of just the two reeds together wasn't documented as well, as it is the blend of these two distinctive voices which gives the album its appeal.
John Sharpe ~ allaboutjazz.com
 
Лог создания рипа
 
CD 1
Exact Audio Copy V1.0 beta 1 from 15. November 2010
EAC extraction logfile from 6. March 2014, 13:58
Elton Dean / Remembrance CD1
Used drive : Optiarc DVD RW AD-7710H Adapter: 1 ID: 0
Read mode : Secure
Utilize accurate stream : Yes
Defeat audio cache : Yes
Make use of C2 pointers : No
Read offset correction : 48
Overread into Lead-In and Lead-Out : No
Fill up missing offset samples with silence : Yes
Delete leading and trailing silent blocks : No
Null samples used in CRC calculations : Yes
Used interface : Native Win32 interface for Win NT & 2000
Gap handling : Appended to previous track
Used output format : User Defined Encoder
Selected bitrate : 896 kBit/s
Quality : High
Add ID3 tag : No
Command line compressor : C:\Program Files\Exact Audio Copy\FLAC\FLAC.EXE
Additional command line options : -8 -V -T "ARTIST=%a" -T "TITLE=%t" -T "ALBUM=%g" -T "DATE=%y" -T "TRACKNUMBER=%n" -T "GENRE=%m" -T "COMMENT=%e" %j--picture="%i"%j %s -o %d
TOC of the extracted CD
Track | Start | Length | Start sector | End sector
---------------------------------------------------------
1 | 0:00.00 | 23:27.23 | 0 | 105547
2 | 23:27.23 | 37:32.12 | 105548 | 274459
Track 1
Filename C:\MY RIPS\01 - Trio I.wav
Pre-gap length 0:00:02.00
Peak level 96.6 %
Extraction speed 3.8 X
Track quality 99.9 %
Test CRC E966B2EA
Copy CRC E966B2EA
Track not present in AccurateRip database
Copy OK
Track 2
Filename C:\MY RIPS\02 - Quartet.wav
Pre-gap length 0:00:04.00
Peak level 96.6 %
Extraction speed 3.4 X
Track quality 99.9 %
Test CRC 83B10694
Copy CRC 83B10694
Track not present in AccurateRip database
Copy OK
None of the tracks are present in the AccurateRip database
No errors occurred
End of status report
==== Log checksum 1F8F2BBA72729AE7A663D90E4414E5F895AB1AD8C341E925C955F1B53D6B683C ====
 
CD 2
Exact Audio Copy V1.0 beta 1 from 15. November 2010
EAC extraction logfile from 5. March 2014, 23:09
Elton Dean / Remembrance CD2
Used drive : Optiarc DVD RW AD-7710H Adapter: 1 ID: 0
Read mode : Secure
Utilize accurate stream : Yes
Defeat audio cache : Yes
Make use of C2 pointers : No
Read offset correction : 48
Overread into Lead-In and Lead-Out : No
Fill up missing offset samples with silence : Yes
Delete leading and trailing silent blocks : No
Null samples used in CRC calculations : Yes
Used interface : Native Win32 interface for Win NT & 2000
Gap handling : Appended to previous track
Used output format : User Defined Encoder
Selected bitrate : 896 kBit/s
Quality : High
Add ID3 tag : No
Command line compressor : C:\Program Files\Exact Audio Copy\FLAC\FLAC.EXE
Additional command line options : -8 -V -T "ARTIST=%a" -T "TITLE=%t" -T "ALBUM=%g" -T "DATE=%y" -T "TRACKNUMBER=%n" -T "GENRE=%m" -T "COMMENT=%e" %j--picture="%i"%j %s -o %d
TOC of the extracted CD
Track | Start | Length | Start sector | End sector
---------------------------------------------------------
1 | 0:00.00 | 28:30.58 | 0 | 128307
2 | 28:30.58 | 26:01.65 | 128308 | 245447
Track 1
Filename C:\MY RIPS\01 - Duo.wav
Pre-gap length 0:00:02.00
Peak level 96.6 %
Extraction speed 4.0 X
Track quality 99.9 %
Test CRC 7AD515CC
Copy CRC 7AD515CC
Track not present in AccurateRip database
Copy OK
Track 2
Filename C:\MY RIPS\02 - Trio II.wav
Pre-gap length 0:00:04.00
Peak level 96.6 %
Extraction speed 5.6 X
Track quality 100.0 %
Test CRC ED79F40A
Copy CRC ED79F40A
Track not present in AccurateRip database
Copy OK
None of the tracks are present in the AccurateRip database
No errors occurred
End of status report
==== Log checksum FEDB3B4AE90C0E3E0E33BB28A162B46765782661DA5455FA302FE67B5BD8B37A ====
 
Содержание индексной карты (.CUE)
 
CD 1
REM GENRE Jazz
REM DATE 2004
REM DISCID 100E4B02
REM COMMENT "ExactAudioCopy v1.0b1"
PERFORMER "Elton Dean"
TITLE "Remembrance CD1"
FILE "01 - Trio I.wav" WAVE
TRACK 01 AUDIO
TITLE "Trio I"
PERFORMER "Elton Dean"
INDEX 01 00:00:00
TRACK 02 AUDIO
TITLE "Quartet"
PERFORMER "Elton Dean"
INDEX 00 23:23:23
FILE "02 - Quartet.wav" WAVE
INDEX 01 00:00:00
 
CD 2
REM GENRE Jazz
REM DATE 2004
REM DISCID 0D0CC802
REM COMMENT "ExactAudioCopy v1.0b1"
PERFORMER "Elton Dean"
TITLE "Remembrance CD2"
FILE "01 - Duo.wav" WAVE
TRACK 01 AUDIO
TITLE "Duo"
PERFORMER "Elton Dean"
INDEX 01 00:00:00
TRACK 02 AUDIO
TITLE "Trio II"
PERFORMER "Elton Dean"
INDEX 00 28:26:58
FILE "02 - Trio II.wav" WAVE
INDEX 01 00:00:00
По всем вопросам пишите личное сообщение пользователю M0p94ok.
23:59
179
Нет комментариев. Ваш будет первым!